Артур Зайченко - Специалист по лидогенерации (2017)

Ответить на тему
 
Автор Сообщение

Yulya ®

Автор (режиссер): Артур Зайченко
Жанр: Интернет бизнес
Описание:
Вы можете обучиться профессии СПЕЦИАЛИСТА ПО ЛИДОГЕНЕРАЦИИ с нуля, даже если никогда ничего не продавали.
Онлайн курс «Интернет-профессия будущего «СПЕЦИАЛИСТ ПО ЛИДОГЕНЕРАЦИИ».
Полный «боекомплект» навыков специалиста-ПРОФЕССИОНАЛА по лидогенерации в Рекламной Сети Яндекса и убойную ПРАКТИКУ:
Секретные техники качественной быстрой настройки и оптимизации РСЯ, которые помогают нам получать от 80 000 рублей в месяц за каждый проект практически пассивно.
3 модели заработка (настройка на заказ удаленно, партнерство и процент от прибыли, продажа своих товаров/услуг) — вы пробуете на деле каждый из способов и выбираете тот, что вам по душе.
Навыки продаж — умение искать клиентов, дорого продавать им свои услуги, договариваться о выгодных для вас условиях сотрудничества.
У вас будет все необходимое, чтобы заработать первые деньги уже в процессе обучения.
Продолжительность: 27:43:24
Качество видео: WEB-DL
Видео: AVC/H.264-WMV1, 1280х686-1364х736, ~351 Kbps
Аудио: WMA-AAC, 1-2 ch, 48-192 Kbps

Mediainfo:

2-Как создавать онлайн таблицу в ГуглДиске.wmv
Format : Windows Media
File size : 19.1 MiB
Duration : 10 min 12 s
Overall bit rate mode : Variable
Overall bit rate : 261 kb/s
Maximum Overall bit rate : 767 kb/s
Encoded date : UTC 2014-11-21 11:51:40.600
Video
ID : 2
Format : WMV1
Codec ID : WMV1
Codec ID/Info : Windows Media Video 7
Description of the codec : Windows Media Video V7
Duration : 10 min 12 s
Bit rate mode : Variable
Bit rate : 208 kb/s
Width : 1 364 pixels
Height : 736 pixels
Display aspect ratio : 1.85:1
Frame rate : 10.000 FPS
Bit depth : 8 bits
Bits/(Pixel*Frame) : 0.021
Stream size : 15.2 MiB (79%)
Language : English (United States)
Audio
ID : 1
Format : WMA
Format version : Version 2
Codec ID : 161
Codec ID/Info : Windows Media Audio
Description of the codec : Windows Media Audio 9.2 - 48 kbps, 44 kHz, mono 1-pass CBR
Duration : 10 min 12 s
Bit rate mode : Constant
Bit rate : 48.0 kb/s
Channel(s) : 1 channel
Sampling rate : 44.1 kHz
Bit depth : 16 bits
Stream size : 3.50 MiB (18%)
Language : English (United States)
01. ТЕОРИЯ- ВВОДНОЕ ЗАНЯТИЕ\Запись 1 го занятия Специалист по лидогенерации.MP4
Format : MPEG-4
Format profile : Base Media / Version 2
Codec ID : mp42 (isom/mp42)
File size : 175 MiB
Duration : 44 min 56 s
Overall bit rate mode : Variable
Overall bit rate : 545 kb/s
Encoded date : UTC 2016-12-21 18:32:27
Tagged date : UTC 2016-12-21 18:32:27
gsst : 0
gstd : 2696950
Video
ID : 1
Format : AVC
Format/Info : Advanced Video Codec
Format profile : [url=mailto:High@L3.1]High@L3.1[/url]
Format settings, CABAC : Yes
Format settings, RefFrames : 1 frame
Codec ID : avc1
Codec ID/Info : Advanced Video Coding
Duration : 44 min 56 s
Bit rate : 351 kb/s
Maximum bit rate : 2 416 kb/s
Width : 1 280 pixels
Height : 686 pixels
Display aspect ratio : 1.85:1
Frame rate mode : Variable
Frame rate : 9.875 FPS
Minimum frame rate : 3.333 FPS
Maximum frame rate : 10.000 FPS
Color space : YUV
Chroma subsampling : 4:2:0
Bit depth : 8 bits
Scan type : Progressive
Bits/(Pixel*Frame) : 0.040
Stream size : 113 MiB (64%)
Tagged date : UTC 2016-12-21 18:32:42
Color range : Limited
Color primaries : BT.709
Transfer characteristics : BT.709
Matrix coefficients : BT.709
Audio
ID : 2
Format : AAC
Format/Info : Advanced Audio Codec
Format profile : LC
Codec ID : 40
Duration : 44 min 56 s
Bit rate mode : Variable
Bit rate : 192 kb/s
Maximum bit rate : 204 kb/s
Channel(s) : 2 channels
Channel positions : Front: L R
Sampling rate : 44.1 kHz
Frame rate : 43.066 FPS (1024 SPF)
Compression mode : Lossy
Stream size : 61.7 MiB (35%)
Title : IsoMedia File Produced by Google, 5-11-2011
Language : English
Encoded date : UTC 2016-12-21 18:32:38
Tagged date : UTC 2016-12-21 18:32:42
Скачать .torrent

Для того, чтобы скачать торрент-файл

Артур Зайченко - Специалист по лидогенерации (2017)

с нашего сайта, Вам необходимо Войти на сайт под своим логином! Если у Вас ещё нет логина, тогда Вам нужно сначала Зарегистрироваться!

Как скачивать? · Что такое торрент? · Рейтинг и ограничения

Показать сообщения:    
Ответить на тему

Артур Зайченко - Специалист по лидогенерации (2017) скачать торрент (torrent), видеоуроки, тренинги, обучающее видео и видеокурсы

Текущее время: Сегодня 17:13

Часовой пояс: GMT + 4



Вы не можете начинать темы
Вы не можете отвечать на сообщения
Вы не можете редактировать свои сообщения
Вы не можете удалять свои сообщения
Вы не можете голосовать в опросах
Вы не можете прикреплять файлы к сообщениям
Вы не можете скачивать файлы