Алексей Меркулов - Моделирование визуализация и постобработка (2014)

Ответить на тему
 
Автор Сообщение

Yulya ®

Алексей Меркулов | Моделирование визуализация и постобработка (2014) [unpacked]- Автор (режиссер): Алексей Меркулов
Производство: Школа Алексея Меркулова
Жанр: Обучающее видео
Системные требования:
• Операционная система Microsoft Windows XP/Vista/7/8/10
• Процессор Pentium III 750 Мгц
• 512 Мб оперативной памяти
• Разрешение экрана 1280x720 с глубиной цвета 16 бит

Описание:
Я покажу вам простые приёмы моделирования. И хотя интерфейс программы английский, вы очень быстро поймете принцип работы в 3ds Max. Вы будете моделировать здание, которое сами выберите или повторять шаг за шагом моделинг коттеджа, взятого за основу курса. В курсе рассмотрено создание конструкций разных форм (например, скатные крыши и плоские кровли)
Формат: unpacked
Продолжительность: 39:12:35
Качество видео: PCRec
Видео: AVC/H.264, 1920х1080-1280х720, ~317 - 1133 Kbps
Аудио: AAC, 2 ch, 192 Kbps

Mediainfo:

Полное имя                               : C:\Users\Андрей\Desktop\3dsMax-exterior-2016.part1\lessons\1.Modelirovanie\2.Podgotovka.mp4
Формат : MPEG-4
Профиль формата : Base Media / Version 2
Идентификатор кодека : mp42 (isom/mp42)
Размер файла : 10,0 Мбайт
Продолжительность : 2 м. 44 с.
Режим общего битрейта : Переменный
Общий поток : 510 Кбит/сек
Дата кодирования : UTC 2015-10-26 08:38:20
Дата пометки : UTC 2015-10-26 08:38:20
Видео
Идентификатор : 1
Формат : AVC
Формат/Информация : Advanced Video Codec
Профиль формата : Baseline@L4
Настройки формата : 3 Ref Frames
Параметр CABAC формата : Нет
Параметр RefFrames формата : 3 кадра
Идентификатор кодека : avc1
Идентификатор кодека/Информация : Advanced Video Coding
Продолжительность : 2 м. 44 с.
Битрейт : 317 Кбит/сек
Ширина : 1920 пикселей
Высота : 1080 пикселей
Соотношение сторон : 16:9
Режим частоты кадров : Постоянный
Частота кадров : 30,000 кадров/сек
Стандарт вещания : NTSC
Цветовое пространство : YUV
Субдискретизация насыщенности : 4:2:0
Битовая глубина : 8 бит
Тип развёртки : Прогрессивная
Бит/(Пиксели*Кадры) : 0.005
Размер потока : 6,24 Мбайт (62%)
Язык : English
Дата кодирования : UTC 2015-10-26 08:38:20
Дата пометки : UTC 2015-10-26 08:38:20
Цветовой диапазон : Limited
Codec configuration box : avcC
Аудио
Идентификатор : 2
Формат : AAC LC
Формат/Информация : Advanced Audio Codec Low Complexity
Идентификатор кодека : mp4a-40-2
Продолжительность : 2 м. 44 с.
Вид битрейта : Переменный
Битрейт : 192 Кбит/сек
Максимальный битрейт : 243 Кбит/сек
Каналы : 2 канала
Channel layout : L R
Частота : 44,1 КГц
Частота кадров : 43,066 кадра/сек (1024 SPF)
Метод сжатия : С потерями
Размер потока : 3,73 Мбайт (37%)
Язык : English
Дата кодирования : UTC 2015-10-26 08:38:20
Дата пометки : UTC 2015-10-26 08:38:20
Общее
Полное имя : C:\Users\Андрей\Desktop\3dsMax-exterior-2016.part1\lessons\3.Post\1.Dop.Otrazhenie-v-oknah.mp4
Формат : MPEG-4
Профиль формата : Base Media / Version 2
Идентификатор кодека : mp42 (isom/mp42)
Размер файла : 46,0 Мбайт
Продолжительность : 4 м. 51 с.
Режим общего битрейта : Переменный
Общий поток : 1325 Кбит/сек
Название фильма : 17.Доп. урок. Отражение в окнах
Дата кодирования : UTC 2016-04-07 09:21:32
Дата пометки : UTC 2016-04-07 09:21:32
Видео
Идентификатор : 1
Формат : AVC
Формат/Информация : Advanced Video Codec
Профиль формата : Baseline@L3.1
Настройки формата : 3 Ref Frames
Параметр CABAC формата : Нет
Параметр RefFrames формата : 3 кадра
Идентификатор кодека : avc1
Идентификатор кодека/Информация : Advanced Video Coding
Продолжительность : 4 м. 51 с.
Битрейт : 1133 Кбит/сек
Ширина : 1280 пикселей
Высота : 720 пикселей
Соотношение сторон : 16:9
Режим частоты кадров : Постоянный
Частота кадров : 30,000 кадров/сек
Стандарт вещания : NTSC
Цветовое пространство : YUV
Субдискретизация насыщенности : 4:2:0
Битовая глубина : 8 бит
Тип развёртки : Прогрессивная
Бит/(Пиксели*Кадры) : 0.041
Размер потока : 39,4 Мбайт (85%)
Язык : English
Дата кодирования : UTC 2016-04-07 09:21:33
Дата пометки : UTC 2016-04-07 09:21:33
Цветовой диапазон : Limited
Codec configuration box : avcC
Аудио
Идентификатор : 2
Формат : AAC LC
Формат/Информация : Advanced Audio Codec Low Complexity
Идентификатор кодека : mp4a-40-2
Продолжительность : 4 м. 51 с.
Вид битрейта : Переменный
Битрейт : 192 Кбит/сек
Максимальный битрейт : 252 Кбит/сек
Каналы : 2 канала
Channel layout : L R
Частота : 44,1 КГц
Частота кадров : 43,066 кадра/сек (1024 SPF)
Метод сжатия : С потерями
Размер потока : 6,59 Мбайт (14%)
Язык : English
Дата кодирования : UTC 2016-04-07 09:21:33
Дата пометки : UTC 2016-04-07 09:21:33

Дополнительная информация:

Для кого этот курс:
    1. Архитекторов, инженеров, проектировщиков.
    2. Дизайнеров, визуализаторов.
    3. Студентов, которые хотят иметь конкурентное преимущество после окончания ВУЗа.
    4. Дизайнеров, визуализаторов.
Зачем вам изучать 3ds Max?
    01. Эффектная презентация своих проектов. Вы сможете нагляднее и эффектнее представлять свои работы (здания, оборудование и т.д.) и соответственно дороже их продавать.
    02. Восстребованность и высокая оплата труда. Эти знания позволят вам стать более востребованным и высокооплачиваемым специалистом. Даже
    инженерам и проектировщикам знание программы. 3ds Max даст огромное преимущество при устройстве на работу или в получении прибавке к зарплате.
    03. Моделирование объектов любой формы и сложности. Вы научитесь создавать модели различной формы и сложности. 3D моделирование и визуализация уже плотно вошли во все индустрии.
    04. Дополнительный заработок и интересная профессия. Сможете освоить интересную профессию и выполнять работы на фрилансе, получая
    дополнительный доход. А если у вас еще есть и опыт строителя, то сможете выполнять весь спектр услуг по проектированию зданий.
    Сейчас это очень ценится.
Скриншоты:
Скачать .torrent

Для того, чтобы скачать торрент-файл

Алексей Меркулов - Моделирование визуализация и постобработка (2014)

с нашего сайта, Вам необходимо Войти на сайт под своим логином! Если у Вас ещё нет логина, тогда Вам нужно сначала Зарегистрироваться!

Как скачивать? · Что такое торрент? · Рейтинг и ограничения

Показать сообщения:    
Ответить на тему

Алексей Меркулов - Моделирование визуализация и постобработка (2014) скачать торрент (torrent), видеоуроки, тренинги, обучающее видео и видеокурсы

Текущее время: Сегодня 22:10

Часовой пояс: GMT + 4



Вы не можете начинать темы
Вы не можете отвечать на сообщения
Вы не можете редактировать свои сообщения
Вы не можете удалять свои сообщения
Вы не можете голосовать в опросах
Вы не можете прикреплять файлы к сообщениям
Вы не можете скачивать файлы