Webformyself - Верстка-Мастер. От теории до верстки популярных шаблонов (2018)

Ответить на тему
 
Автор Сообщение

Yulya ®

Webformyself | Верстка-Мастер. От теории до верстки популярных шаблонов (2018) [unpacked] - Автор (издатель): Webformyself
Жанр: HTML/CSS
Системные требования:
• Операционная система Microsoft Windows XP/Vista/7/8/10
• Процессор Pentium III 750 Мгц
• 512 Мб оперативной памяти
• Разрешение экрана 1280x720 с глубиной цвета 16 бит

Формат: unpacked
Описание:
Если вы начинаете с полного нуля и у вас нет никаких знаний и навыков, то данный курс подойдет для вас идеально.
А если вы уже изучали HTML и CSS, но не представляете, как именно применять полученные знания на практике, либо если вы затрудняетесь с реализацией сложных элементов, – данный курс закроет все ваши пробелы в знаниях и даст бесценные навыки в максимально короткие сроки.
Продолжительность: 12:12:00
Качество видео: PCRec
Видео: AVC, 1280x720, ~960 Kbps
Аудио: AAC, 64 Kbps, 48.0 KHz

Mediainfo:

Complete name : .\Video\Course\WebForMySelf Верстка-мастер\Основной курс\WebForMySelf Верстка-мастер\videokurs\bonus10\2.mp4
Format : MPEG-4
Format profile : Base Media
Codec ID : isom (isom/iso2/avc1/mp41)
File size : 25.3 MiB
Duration : 4 min 41 s
Overall bit rate mode : Variable
Overall bit rate : 752 kb/s
Writing application : Lavf57.71.100
Video
ID : 1
Format : AVC
Format/Info : Advanced Video Codec
Format profile : Main@L3.1
Format settings : CABAC / 2 Ref Frames
Format settings, CABAC : Yes
Format settings, ReFrames : 2 frames
Format settings, GOP : M=1, N=25
Codec ID : avc1
Codec ID/Info : Advanced Video Coding
Duration : 4 min 41 s
Duration_LastFrame : -10 ms
Bit rate mode : Variable
Bit rate : 686 kb/s
Maximum bit rate : 768 kb/s
Width : 1 280 pixels
Height : 720 pixels
Display aspect ratio : 16:9
Frame rate mode : Constant
Frame rate : 10.000 FPS
Original frame rate : 25.000 FPS
Color space : YUV
Chroma subsampling : 4:2:0
Bit depth : 8 bits
Scan type : Progressive
Bits/(Pixel*Frame) : 0.074
Stream size : 23.0 MiB (91%)
Codec configuration box : avcC
Audio
ID : 2
Format : AAC LC
Format/Info : Advanced Audio Codec Low Complexity
Codec ID : mp4a-40-2
Duration : 4 min 41 s
Bit rate mode : Constant
Bit rate : 64.0 kb/s
Channel(s) : 2 channels
Channel layout : L R
Sampling rate : 12.0 kHz
Frame rate : 11.719 FPS (1024 SPF)
Compression mode : Lossy
Stream size : 2.15 MiB (9%)
Default : Yes
Alternate group : 1

Дополнительная информация:

В раздаче имеются архивы! В них содержится дополнительные материалы.

Программа курса:

1. Получите самые актуальные, применяемые и востребованные знания по верстке сайтов.
2. Будете свободно верстать кроссбраузерные адаптивные сайты практически любой сложности.
3. Научитесь быстро верстать сайты, применяя современные востребованные методы, подходы и технологии верстки.
4. Сможете использовать при работе препроцессоры, а также применять менеджер задач Gulp, что существенно облегчит вам выполнение множества рутинных задач и автоматизирует процесс веб-разработки.
5. Освоите современную теоретическую базу в области HTML и CSS, включая новейшие их версии, получите море практического опыта.
6. В совершенстве овладеете версткой и приобретете бесценный навык верстать сайты для своих нужд.
7. Получите 2 заслуживающие внимания работы в портфолио – для того, чтобы устроиться на работу в веб-студию либо начать зарабатывать на фрилансе.
8. Сможете существенно повысить свой уровень верстки, что резко повысит шансы увеличить ваш заработок и успешно конкурировать на рынке труда и биржах фриланса.
Скриншоты:
Скачать .torrent

Для того, чтобы скачать торрент-файл

Webformyself - Верстка-Мастер. От теории до верстки популярных шаблонов (2018)

с нашего сайта, Вам необходимо Войти на сайт под своим логином! Если у Вас ещё нет логина, тогда Вам нужно сначала Зарегистрироваться!

Как скачивать? · Что такое торрент? · Рейтинг и ограничения

Показать сообщения:    
Ответить на тему

Webformyself - Верстка-Мастер. От теории до верстки популярных шаблонов (2018) скачать торрент (torrent), видеоуроки, тренинги, обучающее видео и видеокурсы

Текущее время: Сегодня 22:22

Часовой пояс: GMT + 4



Вы не можете начинать темы
Вы не можете отвечать на сообщения
Вы не можете редактировать свои сообщения
Вы не можете удалять свои сообщения
Вы не можете голосовать в опросах
Вы не можете прикреплять файлы к сообщениям
Вы не можете скачивать файлы