Pluralsight.com - Python - Beyond the Basics (2014)

Ответить на тему
 
Автор Сообщение

Yulya ®

Pluralsight.com | Python - Beyond the Basics (2014) PCRec [H.264] [RU/EN] - Автор (режиссер): Austin Bingham, Robert Smallshire
Производство: Pluralsight.com
Жанр: Программирование
Описание:
Python за пределами основ
Этот учебный курс (148 видео) основывается на темах, заложенных в нашем вступительном курсе об основах Python (Python Fundamentals).
Python - это отличный динамический язык для веб-разработки, для больших данных и написания скриптов. В этом курсе мы улучшим ваши навыки работы в Python, изучив темы, которые помогут вам создавать надёжные и хорошо читаемые приложения любого размера.
По завершении этого курса вы познакомитесь с большинством методов и конструкций, используемых в Python. Кроме того, мы также поговорим о том, когда лучше использовать или не использовать инструменты, доступные на Python, чтобы повысить качество кода, улучшить производительность приложений при работе в Python.
Продолжительность: 07:22:44
Качество видео: PCRec
Перевод: Дублированный (Helluvallyric)
Язык озвучки: Русский, Английский
Видео: AVC/H.264, 1024x768, ~107-1214 Kbps
Аудио 1: AAC, 1 ch, 160 Kbps - Русский, дублированный (Helluvallyric)
Аудио 2: AAC, 2 ch, 58-120 Kbps - Английский, оригинал

Mediainfo:

General
Complete name : 00_01. Prerequisites.mp4
Format : MPEG-4
Format profile : Base Media
Codec ID : isom
File size : 20.3 MiB
Duration : 5mn 42s
Overall bit rate : 497 Kbps
Video
ID : 1
Format : AVC
Format/Info : Advanced Video Codec
Format profile : Baseline@L3.1
Format settings, CABAC : No
Format settings, ReFrames : 2 frames
Format settings, GOP : M=1, N=50
Codec ID : avc1
Codec ID/Info : Advanced Video Coding
Duration : 5mn 42s
Duration_FirstFrame : 67ms
Bit rate : 215 Kbps
Width : 1 024 pixels
Height : 768 pixels
Display aspect ratio : 4:3
Frame rate mode : Constant
Frame rate : 15.000 fps
Color space : YUV
Chroma subsampling : 4:2:0
Bit depth : 8 bits
Scan type : Progressive
Bits/(Pixel*Frame) : 0.018
Stream size : 8.76 MiB (43%)
Writing library : x264 core 120
Color primaries : BT.709
Transfer characteristics : BT.709
Matrix coefficients : BT.709
Language : English
Audio #1
ID : 2
Format : AAC
Format/Info : Advanced Audio Codec
Format profile : LC
Codec ID : 40
Duration : 5mn 42s
Duration_LastFrame : 33ms
Bit rate mode : Constant
Bit rate : 160 Kbps
Channel(s) : 2 channels
Channel(s)_Original : 1 channel
Channel positions : Front: C
Sampling rate : 44.1 KHz
Compression mode : Lossy
Stream size : 6.53 MiB (32%)
Language : Russian
Audio #2
ID : 3
Format : AAC
Format/Info : Advanced Audio Codec
Format profile : LC
Codec ID : 40
Duration : 5mn 42s
Bit rate mode : Constant
Bit rate : 115 Kbps
Channel(s) : 2 channels
Channel positions : Front: L R
Sampling rate : 44.1 KHz
Compression mode : Lossy
Stream size : 4.71 MiB (23%)
Language : English

Дополнительная информация:

Примечание. Данный курс является промежуточным в трилогии учебных курсов:
Скачать .torrent

Для того, чтобы скачать торрент-файл

Pluralsight.com - Python - Beyond the Basics (2014)

с нашего сайта, Вам необходимо Войти на сайт под своим логином! Если у Вас ещё нет логина, тогда Вам нужно сначала Зарегистрироваться!

Как скачивать? · Что такое торрент? · Рейтинг и ограничения

Показать сообщения:    
Ответить на тему

Pluralsight.com - Python - Beyond the Basics (2014) скачать торрент (torrent), видеоуроки, тренинги, обучающее видео и видеокурсы

Текущее время: Сегодня 21:09

Часовой пояс: GMT + 4



Вы не можете начинать темы
Вы не можете отвечать на сообщения
Вы не можете редактировать свои сообщения
Вы не можете удалять свои сообщения
Вы не можете голосовать в опросах
Вы не можете прикреплять файлы к сообщениям
Вы не можете скачивать файлы