Александр Чалдрян - Adobe Photoshop - Творческая ретушь. Новый поток (2018)

Ответить на тему
 
Автор Сообщение

Yulya ®

Александр Чалдрян | Adobe Photoshop - Творческая ретушь. Новый поток (2018) PCRec [H.264]- Автор (режиссер): Александр Чалдрян
Жанр: Обучающее
Описание:
Работайте с ретушью как настоящий художник. Курс переводит учащихся на новый уровень мастерства: от иллюстраторов — к живописцам, от музыкантов — к композиторам, от ремесленников — к мастерам. На курсе появятся новые вводные и инструменты. Вместо привычных кистей, кривых, режимов наложения и гауссовых размытий вы будете оперировать совсем другими категориями: контраст, глубина, перспектива, воздух, контровики, гармонические сочетания.
Продолжительность: 20:00:02
Качество видео: PCRec
Видео: AVC/H.264, 1440x900, ~434 kbps
Аудио: AAC, 2 ch, 304 Kbps

Mediainfo:

Общее
Уникальный идентификатор : 231066143247478052107603191318745356355 (0xADD5B86ED9A288D7A6F7E4EB62B69843)
Полное имя : Adobe Photoshop - Творческая ретушь. Новый поток\1 день\1 часть.mkv
Формат : Matroska
Версия формата : Version 4 / Version 2
Размер файла : 323 Мбайт
Продолжительность : 1 ч. 0 м.
Общий поток : 741 Кбит/сек
Дата кодирования : UTC 2018-04-25 21:09:42
Программа кодирования : mkvmerge v12.0.0 ('Trust / Lust') 64bit
Библиотека кодирования : libebml v1.3.4 + libmatroska v1.4.5
Видео
Идентификатор : 1
Формат : AVC
Формат/Информация : Advanced Video Codec
Профиль формата : High@L4
Настройки формата : CABAC / 4 Ref Frames
Параметр CABAC формата : Да
Параметр RefFrames формата : 4 кадра
Параметр GOP формата : M=4, N=24
Идентификатор кодека : V_MPEG4/ISO/AVC
Продолжительность : 1 ч. 0 м.
Битрейт : 434 Кбит/сек
Ширина : 1440 пикселей
Высота : 900 пикселей
Соотношение сторон : 16:10
Режим частоты кадров : Переменный
Частота кадров : 24,000 кадра/сек
Цветовое пространство : YUV
Субдискретизация насыщенности : 4:2:0
Битовая глубина : 8 бит
Тип развёртки : Прогрессивная
Бит/(Пиксели*Кадры) : 0.014
Размер потока : 189 Мбайт (59%)
Default : Да
Forced : Нет
Аудио
Идентификатор : 2
Формат : AAC
Формат/Информация : Advanced Audio Codec
Профиль формата : LC
Идентификатор кодека : A_AAC-2
Продолжительность : 1 ч. 0 м.
Битрейт : 304 Кбит/сек
Каналы : 2 канала
Расположение каналов : Front: L R
Частота : 44,1 КГц
Частота кадров : 43,066 кадра/сек (1024 SPF)
Метод сжатия : С потерями
Задержка видео : -83 мс.
Размер потока : 133 Мбайт (41%)
Default : Да
Forced : Нет

Продолжение описания:

Всем, кто хотел узнать про «тонировочки», научиться полноценно работать с цветом, освоить «эффектики», стилизации, «текстурки» и прочие украшайзеры, — всем сюда. Одновременно вы научитесь придавать всему этому смысл, работая над сложными творческими задачами: переделывать, начинать с нуля, проходить стадии отрицания, гнева, переговоров — и смиряться, наконец, с неизбежным: необходимостью много трудиться, чтобы достичь уровня великих мастеров, фотографии которых послужат вам примером на курсе.

Содержание:

Занятие 1. Введение в цвет
Занятие 2. Работа с тональностью и формой
Занятие 3. Практика работы с цветом и тональностью
Занятие 4. Работа с атмосферными и световыми эффектами
Занятие 5. Художественная обработка человека
Занятие 6. Обзор стилистик и формализация их анализа
Занятие 7. Консультационное занятие
Скриншоты:
Скачать .torrent

Для того, чтобы скачать торрент-файл

Александр Чалдрян - Adobe Photoshop - Творческая ретушь. Новый поток (2018)

с нашего сайта, Вам необходимо Войти на сайт под своим логином! Если у Вас ещё нет логина, тогда Вам нужно сначала Зарегистрироваться!

Как скачивать? · Что такое торрент? · Рейтинг и ограничения

Показать сообщения:    
Ответить на тему

Александр Чалдрян - Adobe Photoshop - Творческая ретушь. Новый поток (2018) скачать торрент (torrent), видеоуроки, тренинги, обучающее видео и видеокурсы

Текущее время: Сегодня 07:23

Часовой пояс: GMT + 4



Вы не можете начинать темы
Вы не можете отвечать на сообщения
Вы не можете редактировать свои сообщения
Вы не можете удалять свои сообщения
Вы не можете голосовать в опросах
Вы не можете прикреплять файлы к сообщениям
Вы не можете скачивать файлы