Джама Джурабаев - Как создавать кинематографичные ландшафты / How to create cinematic landscapes (2018)

Ответить на тему
 
Автор Сообщение

Yulya ®

Джама Джурабаев | Как создавать кинематографичные ландшафты / How to create cinematic landscapes (2018) PCRec [H.264/1080p-LQ] [EN] - Автор (режиссер): Джама Джурабаев / Jama Jurabaev
Производство: Gumroad
Жанр: 3D моделирование
Описание:
В этом курсе я покажу вам, как создавать кинематографичные ландшафты с помощью World Creator 2 и Octane Standalone.
Продолжительность: 00:50:38
Качество видео: PCRec
Перевод: Отсутствует
Язык озвучки: Английский
Видео: AVC/H.264, 1920x1080, ~3860 Kbps
Аудио: AAC, 2 ch, 192 Kbps, VBR

Mediainfo:

Код:
General
Complete name                            : C:\Torrents\Jama Jurabaev - How to create cinematic landscapes\01_Introduction.mp4
Format                                   : MPEG-4
Codec ID                                 : M4V
File size                                : 113 MiB
Duration                                 : 3mn 54s
Overall bit rate mode                    : Variable
Overall bit rate                         : 4 052 Kbps
Encoded date                             : UTC 2018-07-05 18:49:04
Tagged date                              : UTC 2018-07-05 18:49:06
©TIM                                     : 00:00:00:00
©TSC                                     : 30
©TSZ                                     : 1
Video
ID                                       : 1
Format                                   : AVC
Format/Info                              : Advanced Video Codec
Format profile                           : Main@L4.1
Format settings, CABAC                   : No
Format settings, ReFrames                : 2 frames
Format settings, GOP                     : M=1, N=30
Codec ID                                 : avc1
Codec ID/Info                            : Advanced Video Coding
Duration                                 : 3mn 54s
Bit rate                                 : 3 860 Kbps
Width                                    : 1 920 pixels
Height                                   : 1 080 pixels
Display aspect ratio                     : 16:9
Frame rate mode                          : Constant
Frame rate                               : 30.000 fps
Standard                                 : NTSC
Color space                              : YUV
Chroma subsampling                       : 4:2:0
Bit depth                                : 8 bits
Scan type                                : Progressive
Bits/(Pixel*Frame)                       : 0.062
Stream size                              : 108 MiB (95%)
Language                                 : English
Encoded date                             : UTC 2018-07-05 18:49:04
Tagged date                              : UTC 2018-07-05 18:49:04
Color primaries                          : BT.709
Transfer characteristics                 : BT.709
Matrix coefficients                      : BT.709
Audio
ID                                       : 2
Format                                   : AAC
Format/Info                              : Advanced Audio Codec
Format profile                           : LC
Codec ID                                 : 40
Duration                                 : 3mn 54s
Source duration                          : 3mn 54s
Bit rate mode                            : Variable
Bit rate                                 : 192 Kbps
Maximum bit rate                         : 283 Kbps
Channel(s)                               : 2 channels
Channel positions                        : Front: L R
Sampling rate                            : 48.0 KHz
Compression mode                         : Lossy
Stream size                              : 5.28 MiB (5%)
Source stream size                       : 5.28 MiB (5%)
Language                                 : English
Encoded date                             : UTC 2018-07-05 18:49:04
Tagged date                              : UTC 2018-07-05 18:49:04

Дополнительная информация:

В комплект входят все материалы, которые могут пригодиться вам для создания собственного ландшафта:
- 100+ карт смещения УЛЬТРА-высокого разрешения (пустыни, горы, кратеры, дюны и многое другое);
- 3D-сцены + файлы Photoshop;
- 1 час обучающего видео с комментариями.
(Файлы находятся в RAR архивах в папке Project_files)
Не могу дождаться, чтобы увидеть, что вы можете создать с этими.
Скриншоты:

Дополнительные скриншоты:

Скачать .torrent

Для того, чтобы скачать торрент-файл

Джама Джурабаев - Как создавать кинематографичные ландшафты / How to create cinematic landscapes (2018)

с нашего сайта, Вам необходимо Войти на сайт под своим логином! Если у Вас ещё нет логина, тогда Вам нужно сначала Зарегистрироваться!

Как скачивать? · Что такое торрент? · Рейтинг и ограничения

Показать сообщения:    
Ответить на тему

Джама Джурабаев - Как создавать кинематографичные ландшафты / How to create cinematic landscapes (2018) скачать торрент (torrent), видеоуроки, тренинги, обучающее видео и видеокурсы

Текущее время: Сегодня 20:04

Часовой пояс: GMT + 4



Вы не можете начинать темы
Вы не можете отвечать на сообщения
Вы не можете редактировать свои сообщения
Вы не можете удалять свои сообщения
Вы не можете голосовать в опросах
Вы не можете прикреплять файлы к сообщениям
Вы не можете скачивать файлы