ITVDN - Онлайн курс CoffeeScript (2017)

Ответить на тему
 
Автор Сообщение

Yulya ®

ITVDN | Онлайн курс CoffeeScript (2017) PCRec [H.264/1080p-LQ] - Автор (режиссер): Владимир Виноградов
Производство: Itvdn.com
Жанр: Программирование, front-end, JavaScript, web-разработка, верстка
Описание:
CoffeeScript - это язык программирования, который транслируется в JavaScript. CoffeeScript добавляет синтаксический сахар похожим образом с Ruby, Python и Haskell для того, чтобы улучшить чтение кода и уменьшить его размер. В среднем, для выполнения одинаковых действий на CoffeeScript нужно в 2 раза меньше строк, чем для JavaScript. Целевой аудиторией курса являются верстальщики и web-разработчики. Для успешного прохождения нужны знания языка разметки страниц HTML и CSS, и владение базовым уровнем JavaScript. Пройдя курс, Вы сможете уверенно понимать код CoffeeScript, освоите написания модулей на CoffeeScript и компиляцию в JavaScript код.
Продолжительность: 04:02:49
Качество видео: PCRec
Видео: AVC/H.264, 1920х1080, ~584 Kbps
Аудио: AAC, 2 ch, 192 Kbps

Mediainfo:

General
Complete name : C:\\coffeescript_nnm-club.me\№1. ВВЕДЕНИЕ В COFFEESCRIPT.mp4
Format : MPEG-4
Format profile : Base Media
Codec ID : isom (isom/iso2/avc1/mp41)
File size : 221 MiB
Duration : 39 min 27 s
Overall bit rate mode : Constant
Overall bit rate : 783 kb/s
Writing application : Lavf58.12.100
Video
ID : 1
Format : AVC
Format/Info : Advanced Video Codec
Format profile : Main@L4
Format settings : CABAC / 1 Ref Frames
Format settings, CABAC : Yes
Format settings, ReFrames : 1 frame
Format settings, GOP : M=1, N=25
Codec ID : avc1
Codec ID/Info : Advanced Video Coding
Duration : 39 min 27 s
Bit rate mode : Constant
Bit rate : 584 kb/s
Nominal bit rate : 900 kb/s
Width : 1 920 pixels
Height : 1 080 pixels
Display aspect ratio : 16:9
Frame rate mode : Constant
Frame rate : 30.000 FPS
Color space : YUV
Chroma subsampling : 4:2:0
Bit depth : 8 bits
Scan type : Progressive
Bits/(Pixel*Frame) : 0.009
Stream size : 165 MiB (75%)
Audio
ID : 2
Format : AAC
Format/Info : Advanced Audio Codec
Format profile : LC
Codec ID : mp4a-40-2
Duration : 39 min 27 s
Bit rate mode : Constant
Bit rate : 192 kb/s
Channel(s) : 2 channels
Channel positions : Front: L R
Sampling rate : 44.1 kHz
Frame rate : 43.066 FPS (1024 SPF)
Compression mode : Lossy
Stream size : 54.1 MiB (24%)
Default : Yes
Alternate group : 1

Дополнительная информация:

Присутствуют дополнительные материалы
Скриншоты:
Скачать .torrent

Для того, чтобы скачать торрент-файл

ITVDN - Онлайн курс CoffeeScript (2017)

с нашего сайта, Вам необходимо Войти на сайт под своим логином! Если у Вас ещё нет логина, тогда Вам нужно сначала Зарегистрироваться!

Как скачивать? · Что такое торрент? · Рейтинг и ограничения

Показать сообщения:    
Ответить на тему

ITVDN - Онлайн курс CoffeeScript (2017) скачать торрент (torrent), видеоуроки, тренинги, обучающее видео и видеокурсы

Текущее время: Сегодня 09:18

Часовой пояс: GMT + 4



Вы не можете начинать темы
Вы не можете отвечать на сообщения
Вы не можете редактировать свои сообщения
Вы не можете удалять свои сообщения
Вы не можете голосовать в опросах
Вы не можете прикреплять файлы к сообщениям
Вы не можете скачивать файлы