Александр Чалдрян - Обзор плагинов Nik Collection (2018)

Ответить на тему
 
Автор Сообщение

Yulya ®

Александр Чалдрян | Обзор плагинов Nik Collection (2018) PCRec [H.264] - Автор (режиссер): Александр Чалдрян
Производство: LiveClasses
Жанр: Обучающее видео, Photoshop, Фотография
Описание:
Подружись с семейством нужных плагинов для фотошопа!
Этот живой класс посвящен серии плагинов Nik collection – лидера среди плагинов для Adobe Photoshop. На классе автор тщательно разбирает три наиболее применимых – Color Efex Pro, Silver Efex Pro и Analog Efex Pro. С помощью этих плагинов можно охватить все аспекты обработки изображений – хроматику, работу с тоном и спецэффекты.
С помощью преподавателя вы сможете извлечь из софта максимальную практическую пользу, не тратя время на изучение различных маркетологических «добавлений», которыми, по традиции, снабжен инструментарий. Саша Чалдрян покажет только то, что помогает ему в работе.
Продолжительность: 01:13:06
Качество видео: PCRec
Видео: AVC/H.264, 1440×804, ~3000 kb/s
Аудио: AAC, 2 ch, ~200kbps

Mediainfo:

General
Complete name : ~/LiveClasses - Саша Чалдрян - Обзор плагинов Nik Collection.mp4
Format : MPEG-4
Format profile : Base Media / Version 2
Codec ID : mp42 (isom/iso2/avc1/mp41)
File size : 1.65 GiB
Duration : 1 h 13 min
Overall bit rate mode : Variable
Overall bit rate : 3 226 kb/s
Video
ID : 2
Format : AVC
Format/Info : Advanced Video Codec
Format profile : Main@L4
Format settings : CABAC / 5 Ref Frames
Format settings, CABAC : Yes
Format settings, ReFrames : 5 frames
Codec ID : avc1
Codec ID/Info : Advanced Video Coding
Duration : 1 h 13 min
Bit rate : 3 015 kb/s
Width : 1 440 pixels
Height : 804 pixels
Display aspect ratio : 16:9
Frame rate mode : Constant
Frame rate : 30.000 FPS
Color space : YUV
Chroma subsampling : 4:2:0
Bit depth : 8 bits
Scan type : Progressive
Bits/(Pixel*Frame) : 0.087
Stream size : 1.54 GiB (93%)
Color range : Limited
Color primaries : BT.709
Transfer characteristics : BT.709
Matrix coefficients : BT.709
Codec configuration box : avcC
Audio
ID : 1
Format : AAC LC
Format/Info : Advanced Audio Codec Low Complexity
Codec ID : mp4a-40-2
Duration : 1 h 13 min
Bit rate mode : Variable
Bit rate : 207 kb/s
Maximum bit rate : 301 kb/s
Channel(s) : 2 channels
Channel layout : L R
Sampling rate : 44.1 kHz
Frame rate : 43.066 FPS (1024 SPF)
Compression mode : Lossy
Stream size : 108 MiB (6%)
Скриншоты:
Скачать .torrent

Для того, чтобы скачать торрент-файл

Александр Чалдрян - Обзор плагинов Nik Collection (2018)

с нашего сайта, Вам необходимо Войти на сайт под своим логином! Если у Вас ещё нет логина, тогда Вам нужно сначала Зарегистрироваться!

Как скачивать? · Что такое торрент? · Рейтинг и ограничения

Показать сообщения:    
Ответить на тему

Александр Чалдрян - Обзор плагинов Nik Collection (2018) скачать торрент (torrent), видеоуроки, тренинги, обучающее видео и видеокурсы

Текущее время: Сегодня 09:25

Часовой пояс: GMT + 4



Вы не можете начинать темы
Вы не можете отвечать на сообщения
Вы не можете редактировать свои сообщения
Вы не можете удалять свои сообщения
Вы не можете голосовать в опросах
Вы не можете прикреплять файлы к сообщениям
Вы не можете скачивать файлы