ITVDN - Создание адаптивного сайта с Bootstrap 3 (2016)

Ответить на тему
 
Автор Сообщение

Yulya ®

ITVDN | Создание адаптивного сайта с Bootstrap 3 (2016) PCRec [H.264] - Автор (режиссер): Александр Пономаренко
Производство: Itvdn.com
Жанр: Программирование,дизайн,front-end
Описание:
Данный видео курс предназначен для обучения современным приемам и подходам адаптивной верстки, в нем продемонстрирован простой процесс создания адаптивной версии сайтов при помощи возможностей Bootstrap. Кроме того, Вы увидите к каким проблемам можно прийти, если Вы захотите реализовать адаптивной дизайн без использования Bootstrap 3
Продолжительность: 03:22:24
Качество видео: PCRec
Видео: AVC/H.264, 1350х720 ~518 kbps
Аудио: AAC, 2 ch, 235 kbps

Mediainfo:

General
Complete name : \\Downloads\sozdanie-adaptivnogo-saita-s-bootstrap-3\sozdanie-adaptivnogo-saita-s-bootstrap-3\5-verstka-adaptivnogo-maketa-na-bootstrap-chast-3.mp4
Format : MPEG-4
Format profile : Base Media / Version 2
Codec ID : mp42 (mp42/mp41/isom/avc1)
File size : 206 MiB
Duration : 38 min 0 s
Overall bit rate mode : Variable
Overall bit rate : 758 kbps
Encoded date : UTC 2016-07-11 12:34:02
Tagged date : UTC 2016-07-11 12:34:02
Video
ID : 1
Format : AVC
Format/Info : Advanced Video Codec
Format profile : High@L3.2
Format settings : CABAC / 5 Ref Frames
Format settings, CABAC : Yes
Format settings, ReFrames : 5 frames
Codec ID : avc1
Codec ID/Info : Advanced Video Coding
Duration : 38 min 0 s
Bit rate : 518 kbps
Width : 1 350 pixels
Height : 720 pixels
Display aspect ratio : 1.85:1
Frame rate mode : Constant
Frame rate : 30.000 FPS
Color space : YUV
Chroma subsampling : 4:2:0
Bit depth : 8 bits
Scan type : Progressive
Bits/(Pixel*Frame) : 0.018
Stream size : 141 MiB (68%)
Writing library : x264 core 148 r11 3b70645
Encoding settings : cabac=1 / ref=5 / deblock=1:0:0 / analyse=0x3:0x113 / me=umh / subme=8 / psy=1 / psy_rd=1.00:0.00 / mixed_ref=1 / me_range=16 / chroma_me=1 / trellis=1 / 8x8dct=1 / cqm=0 / deadzone=21,11 / fast_pskip=1 / chroma_qp_offset=-2 / threads=22 / lookahead_threads=3 / sliced_threads=0 / nr=0 / decimate=1 / interlaced=0 / bluray_compat=0 / stitchable=1 / constrained_intra=0 / bframes=3 / b_pyramid=2 / b_adapt=2 / b_bias=0 / direct=3 / weightb=1 / open_gop=0 / weightp=2 / keyint=infinite / keyint_min=30 / scenecut=40 / intra_refresh=0 / rc_lookahead=50 / rc=crf / mbtree=1 / crf=20.0 / qcomp=0.60 / qpmin=5 / qpmax=69 / qpstep=4 / vbv_maxrate=2750 / vbv_bufsize=7500 / crf_max=0.0 / nal_hrd=none / filler=0 / ip_ratio=1.40 / aq=1:1.00
Encoded date : UTC 2016-07-11 12:34:02
Tagged date : UTC 2016-07-11 12:34:02
Color range : Limited
Color primaries : BT.709
Transfer characteristics : BT.709
Matrix coefficients : BT.709
Audio
ID : 2
Format : AAC
Format/Info : Advanced Audio Codec
Format profile : LC
Codec ID : mp4a-40-2
Duration : 38 min 0 s
Bit rate mode : Variable
Bit rate : 235 kbps
Channel(s) : 2 channels
Channel positions : Front: L R
Sampling rate : 48.0 kHz
Frame rate : 46.875 FPS (1024 SPF)
Compression mode : Lossy
Stream size : 64.0 MiB (31%)
Encoded date : UTC 2016-07-11 12:34:02
Tagged date : UTC 2016-07-11 12:34:02

Дополнительная информация:

Присутствую материалы.
Скриншоты:
Скачать .torrent

Для того, чтобы скачать торрент-файл

ITVDN - Создание адаптивного сайта с Bootstrap 3 (2016)

с нашего сайта, Вам необходимо Войти на сайт под своим логином! Если у Вас ещё нет логина, тогда Вам нужно сначала Зарегистрироваться!

Как скачивать? · Что такое торрент? · Рейтинг и ограничения

Показать сообщения:    
Ответить на тему

ITVDN - Создание адаптивного сайта с Bootstrap 3 (2016) скачать торрент (torrent), видеоуроки, тренинги, обучающее видео и видеокурсы

Текущее время: Сегодня 01:48

Часовой пояс: GMT + 4



Вы не можете начинать темы
Вы не можете отвечать на сообщения
Вы не можете редактировать свои сообщения
Вы не можете удалять свои сообщения
Вы не можете голосовать в опросах
Вы не можете прикреплять файлы к сообщениям
Вы не можете скачивать файлы