Дмитрий Лаврик - Javascript. Только для участников основного курса (2017)

Ответить на тему
 
Автор Сообщение

Yulya ®

Дмитрий Лаврик | Javascript. Только для участников основного курса (2017) PCRec [H.264] - Автор (режиссер): Дмитрий Лаврик
Жанр: Программирование, Javascript
Описание:
Цель курса - добить серьёзное ООП в javascript с прототипами, наследованием и т.п.
А также изучить AJAX для организации фонового общения клиента и сервера.
Продолжительность: 08:37:24
Качество видео: PCRec
Видео: AVC/H.264, 1680x1048, ~149-210 Kbps
Аудио: AAC, 2 ch, 157-158 Kbps

Mediainfo:

Общее
Полное имя : .\01 ООП на прототипах\js-progr-1.mp4
Формат : MPEG-4
Профиль формата : Base Media / Version 2
Идентификатор кодека : mp42 (isom/mp42)
Размер файла : 274 Мбайт
Продолжительность : 2 ч. 3 м.
Режим общего битрейта : Переменный
Общий поток : 310 Кбит/сек
Исполнитель : Dmitry Lavrik
Дата кодирования : UTC 2017-04-19 19:35:49
Дата пометки : UTC 2017-04-19 19:35:49
Видео
Идентификатор : 1
Формат : AVC
Формат/Информация : Advanced Video Codec
Профиль формата : Baseline@L4
Настройки формата : 3 Ref Frames
Параметр CABAC формата : Нет
Параметр RefFrames формата : 3 кадра
Идентификатор кодека : avc1
Идентификатор кодека/Информация : Advanced Video Coding
Продолжительность : 2 ч. 3 м.
Продолжительность оригинала : 2 ч. 3 м.
Битрейт : 150 Кбит/сек
Ширина : 1680 пикселей
Высота : 1048 пикселей
Соотношение сторон : 16:10
Режим частоты кадров : Переменный
Частота кадров : 30,000 кадров/сек
Минимальная частота кадров : 30,000 кадров/сек
Максимальная частота кадров : 30,030 кадров/сек
Стандарт вещания : NTSC
Цветовое пространство : YUV
Субдискретизация насыщенности : 4:2:0
Битовая глубина : 8 бит
Тип развёртки : Прогрессивная
Бит/(Пиксели*Кадры) : 0.003
Размер потока : 132 Мбайт (48%)
Размер потока оригинала : 132 Мбайт (48%)
Язык : English
Дата кодирования : UTC 2017-04-19 19:35:49
Дата пометки : UTC 2017-04-19 19:35:49
Цветовой диапазон : Limited
mdhd_Duration : 7414167
Codec configuration box : avcC
Аудио
Идентификатор : 2
Формат : AAC LC
Формат/Информация : Advanced Audio Codec Low Complexity
Идентификатор кодека : mp4a-40-2
Продолжительность : 2 ч. 3 м.
Продолжительность оригинала : 2 ч. 3 м.
Вид битрейта : Переменный
Битрейт : 158 Кбит/сек
Максимальный битрейт : 219 Кбит/сек
Каналы : 2 канала
Channel layout : L R
Частота : 44,1 КГц
Частота кадров : 43,066 кадра/сек (1024 SPF)
Метод сжатия : С потерями
Размер потока : 139 Мбайт (51%)
Размер потока оригинала : 139 Мбайт (51%)
Язык : English
Дата кодирования : UTC 2017-04-19 19:35:49
Дата пометки : UTC 2017-04-19 19:35:49
mdhd_Duration : 7414201

Программа:

урок 1. ООП на прототипах.
- Понятие прототипа объекта
- Порядок доступа к свойствам
- Преимущества работы с прототипами
- Наследование
- Полиморфизм
урок 2. ООП мышление.
- Разработка тренировочной игры
- Создание иерархии сущностей
- Выделение базовых классов
- Максимальная выгода от наследования
- Взаимодействие объектов друг с другом
урок 3. Основы AJAX.
- Основы фоновых запросов
- AJAX и JQuery
- Функции load, get, post, ajax
- Обработка результатов
- Контроль ошибочных запросов
урок 4. JSON, JSONP, CORS.
- Основные форматы передачи данных
- Запросы к своему серверу
- Способы обращений к другим доменам
- Костыль JSONP
- Разрешение CORS

Дополнительная информация:

В раздаче имеются архивы! В них содержится дополнительные материалы.
Скриншоты:
Скачать .torrent

Для того, чтобы скачать торрент-файл

Дмитрий Лаврик - Javascript. Только для участников основного курса (2017)

с нашего сайта, Вам необходимо Войти на сайт под своим логином! Если у Вас ещё нет логина, тогда Вам нужно сначала Зарегистрироваться!

Как скачивать? · Что такое торрент? · Рейтинг и ограничения

Показать сообщения:    
Ответить на тему

Дмитрий Лаврик - Javascript. Только для участников основного курса (2017) скачать торрент (torrent), видеоуроки, тренинги, обучающее видео и видеокурсы

Текущее время: Сегодня 10:12

Часовой пояс: GMT + 4



Вы не можете начинать темы
Вы не можете отвечать на сообщения
Вы не можете редактировать свои сообщения
Вы не можете удалять свои сообщения
Вы не можете голосовать в опросах
Вы не можете прикреплять файлы к сообщениям
Вы не можете скачивать файлы