Itproger - Полное изучение языка Python (2018)

Ответить на тему
 
Автор Сообщение

Yulya ®

Itproger | Полное изучение языка Python (2018) PCRec [H.264/1080p-LQ] - Автор (режиссер): Гоша Дударь
Производство: Itproger
Жанр: Программирование, Python, Django
Описание:
Данный видео курс предназначен для людей, которые хотят научиться программировать на языке Python. В курсе будут рассмотрены базовые моменты языка Питон, а также рассмотрена тема работы с библиотеками. Вы научитесь писать программы под ПК при помощи фреймворка TKinter, а также создавать мощные, динамичные и красивые веб сайты на основе библиотеки Django.
Продолжительность: 09:20:57
Качество видео: PCRec
Видео: AVC/H.264, 1920x1080, ~985-5166 Kbps
Аудио: MP3, 2 ch, 247-256 Kbps

Mediainfo:

Общее
Полное имя : .\01 Основы Python\#11 - Работа с базой данных SQLIte.mp4
Формат : MPEG-4
Профиль формата : Base Media / Version 2
Идентификатор кодека : mp42 (mp41/mp42/isom)
Размер файла : 290 Мбайт
Продолжительность : 22 м. 27 с.
Режим общего битрейта : Переменный
Общий поток : 1807 Кбит/сек
Название фильма : Python
Movie_More : Введите тут описание своего видео Python
Дата кодирования : UTC 2018-10-17 19:45:26
Дата пометки : UTC 2018-10-17 19:54:49
thmb : яШяа
Видео
Идентификатор : 2
Формат : AVC
Формат/Информация : Advanced Video Codec
Профиль формата : High@L4
Настройки формата : CABAC / 2 Ref Frames
Параметр CABAC формата : Да
Параметр RefFrames формата : 2 кадра
Параметр GOP формата : M=1, N=30
Идентификатор кодека : avc1
Идентификатор кодека/Информация : Advanced Video Coding
Продолжительность : 22 м. 27 с.
Вид битрейта : Переменный
Битрейт : 1556 Кбит/сек
Максимальный битрейт : 768 Кбит/сек
Ширина : 1920 пикселей
Высота : 1080 пикселей
Соотношение сторон : 16:9
Режим частоты кадров : Постоянный
Частота кадров : 29,970 (30000/1001) кадров/сек
Цветовое пространство : YUV
Субдискретизация насыщенности : 4:2:0
Битовая глубина : 8 бит
Тип развёртки : Прогрессивная
Бит/(Пиксели*Кадры) : 0.025
Размер потока : 250 Мбайт (86%)
Заголовок : Core Media Video
Дата кодирования : UTC 2018-10-17 19:45:26
Дата пометки : UTC 2018-10-17 19:54:49
Цветовой диапазон : Limited
Основные цвета : BT.709
Характеристики трансфера : BT.709
Коэффициенты матрицы : BT.709
Codec configuration box : avcC
Аудио
Идентификатор : 1
Формат : AAC LC
Формат/Информация : Advanced Audio Codec Low Complexity
Идентификатор кодека : mp4a-40-2
Продолжительность : 22 м. 27 с.
Продолжительность оригинала : 22 м. 27 с.
Вид битрейта : Постоянный
Битрейт : 256 Кбит/сек
Каналы : 2 канала
Channel layout : L R
Частота : 48,0 КГц
Частота кадров : 46,875 кадров/сек (1024 SPF)
Метод сжатия : С потерями
Размер потока : 39,8 Мбайт (14%)
Размер потока оригинала : 39,8 Мбайт (14%)
Заголовок : Core Media Audio
Язык : Russian
Дата кодирования : UTC 2018-10-17 19:45:26
Дата пометки : UTC 2018-10-17 19:54:49

Программа обучения:

Основы Python
#1 - Установка среды разработки, вывод информации
#2 - Переменные и получение данных от пользователя
#3 - Условные операторы
#4 - Списки, индексы, срезы, кортежи, словари и множества
#5 - Циклы For, While, а также операторы
#6 - Функции (def, lambda, return)
#7 - Работа с файлами и исключения
#8 - Работа с модулями (import и from)
#9 - Изучение ООП (классы, объекты, методы и конструкторы)
#10 - Наследование, инкапсуляция, полиморфизм
#11 - Работа с базой данных SQLite
Библиотека TKinter
#1 - Знакомство с библиотекой TKinter
#2 - Приложение для поиска информации в Интернете
#3 - Выбор поисковой системы в приложении
#4 - Добавление стилей и создание exe файла
Создание сайта
#1 - Вводный урок в Django. Установка всего
#2 - Создание пустого проекта и его настройка
#3 - Создание компонента и отслеживание URL
#4 - Работа с шаблонизатором
#5 - Настройка панели администратора
#6 - Создание базы данных и проведение миграций
#7 - Добавление регистрации на сайте
#8 - Авторизация и выход из учетной записи
#9 - Настройки учетной записи и загрузка фотографии
#10 - Изменение профиля на сайте
#11 - Создание, удаление и редактирование постов
#12 - Постраничный вывод постов на главной
#13 - Кнопка восстановления пароля
Скриншоты:
Скачать .torrent

Для того, чтобы скачать торрент-файл

Itproger - Полное изучение языка Python (2018)

с нашего сайта, Вам необходимо Войти на сайт под своим логином! Если у Вас ещё нет логина, тогда Вам нужно сначала Зарегистрироваться!

Как скачивать? · Что такое торрент? · Рейтинг и ограничения

Показать сообщения:    
Ответить на тему

Itproger - Полное изучение языка Python (2018) скачать торрент (torrent), видеоуроки, тренинги, обучающее видео и видеокурсы

Текущее время: Сегодня 09:15

Часовой пояс: GMT + 4



Вы не можете начинать темы
Вы не можете отвечать на сообщения
Вы не можете редактировать свои сообщения
Вы не можете удалять свои сообщения
Вы не можете голосовать в опросах
Вы не можете прикреплять файлы к сообщениям
Вы не можете скачивать файлы