Алексей Ларченко - Как сделать в Movavi Video Suite 18 (2018-2019)

Ответить на тему
 
Автор Сообщение

Yulya ®

Алексей Ларченко | Как сделать в Movavi Video Suite 18 (2018-2019) PCRec - Автор (режиссер): Алексей Ларченко
Жанр: Видеоуроки
Описание:
Серия видеоуроков по Movavi Video Suite 18. Есть несколько видеоуроков по созданию имитации анимированной графики с использованием Фотошопа и внутренних ресурсов программы.
Продолжительность: 02:05:47
Качество видео: PCRec
Видео: Другой, 1920-1280х720-1080, ~1000-7000 Kbps
Аудио: Другой, 2 ch, 128-320 Kbps, CBR-VBR

Список файлов

1. Анимация текстовых сообщений в Movavi Video Suite 18
2. Как сделать слайдшоу из фотографий в Movavi Video Suite 18
3. Анимация иконок в Movavi Video Suite 18
4. Анимация комментариев в Movavi Video Suite 18
5. Эффект перемотки в Movavi Video Suite 18
6. Как сделать три видео в одном кадре в Movavi Video Suite 18
7. Как оформить Stories Instagram в Movavi Video Suite 18
8. Как создать видео для Stories и IGTV в Movavi Video Suite 18
9. Как сделать видео для Instagram в Movavi Video Suite 18
10. Создание анимированной графики в Movavi Video Suite 18 (Часть 1)
11. Split Screen (разделенный экран) в Movavi Video Suite 18
12. Как сделать двойника в видео в Movavi Video Suite 18
13. Создание анимированной графики в Movavi Video Suite 18 (Часть 2)
14. Как убрать черные полосы в Movavi Video Suite 18
15. Как сделать водяной знак в Movavi Video Suite 18
+ Доп. файлы к тем видеоурокам, в которых они упоминаются.

Mediainfo:

General
Complete name : D:\Основной канал\1. Movavi Video Suite 18\На торрент\Как сделать в Movavi Video Suite 18\1. Анимация текстовых сообщений в Movavi Video Suite 18.MP4
Format : MPEG-4
Format profile : Base Media
Codec ID : isom (isom/iso2/avc1/mp41)
File size : 462 MiB
Duration : 14 min 24 s
Overall bit rate mode : Variable
Overall bit rate : 4 484 kb/s
Encoded date : UTC 2018-12-09 13:12:55
Tagged date : UTC 2018-12-09 13:12:55
Writing application : Lavf58.12.100
Video
ID : 1
Format : AVC
Format/Info : Advanced Video Codec
Format profile : Main@L3.1
Format settings : CABAC / 2 Ref Frames
Format settings, CABAC : Yes
Format settings, RefFrames : 2 frames
Codec ID : avc1
Codec ID/Info : Advanced Video Coding
Duration : 14 min 24 s
Bit rate : 4 292 kb/s
Width : 1 280 pixels
Height : 720 pixels
Display aspect ratio : 16:9
Frame rate mode : Constant
Frame rate : 29.970 (30000/1001) FPS
Color space : YUV
Chroma subsampling : 4:2:0
Bit depth : 8 bits
Scan type : Progressive
Bits/(Pixel*Frame) : 0.155
Stream size : 443 MiB (96%)
Language : English
Encoded date : UTC 2018-12-09 13:12:55
Tagged date : UTC 2018-12-09 13:12:55
Codec configuration box : avcC
Audio
ID : 2
Format : AAC LC
Format/Info : Advanced Audio Codec Low Complexity
Codec ID : mp4a-40-2
Duration : 14 min 24 s
Bit rate mode : Variable
Bit rate : 185 kb/s
Maximum bit rate : 192 kb/s
Channel(s) : 2 channels
Channel layout : L R
Sampling rate : 48.0 kHz
Frame rate : 46.875 FPS (1024 SPF)
Compression mode : Lossy
Stream size : 19.1 MiB (4%)
Language : English
Default : Yes
Alternate group : 1
Encoded date : UTC 2018-12-09 13:12:55
Tagged date : UTC 2018-12-09 13:12:55
General
Complete name : D:\Основной канал\1. Movavi Video Suite 18\На торрент\Как сделать в Movavi Video Suite 18\Доп. файлы\11. Создание анимированной графики (.mogrt, Motion Graphics Template) (Часть 1)\Создание анимированной графики (.mogrt, Motion Graphics Template).wmv
Format : Windows Media
File size : 16.0 MiB
Duration : 19 s 550 ms
Overall bit rate : 6 884 kb/s
Maximum Overall bit rate : 320 kb/s
Encoded date : UTC 1970-01-01 00:00:00.000
WM/EncodingSettings : Lavf58.12.100
Video
ID : 1
Format : WMV2
Codec ID : WMV2
Codec ID/Info : Windows Media Video 8
Description of the codec : wmv2
Duration : 19 s 553 ms
Bit rate : 6 283 kb/s
Width : 1 920 pixels
Height : 1 080 pixels
Display aspect ratio : 16:9
Frame rate : 29.970 (29970/1000) FPS
Bit depth : 8 bits
Bits/(Pixel*Frame) : 0.101
Stream size : 14.6 MiB (91%)
Audio
ID : 2
Format : WMA
Format version : Version 2
Codec ID : 161
Codec ID/Info : Windows Media Audio
Description of the codec : Windows Media Audio V8
Duration : 19 s 550 ms
Bit rate : 320 kb/s
Channel(s) : 2 channels
Sampling rate : 44.1 kHz
Bit depth : 16 bits
Stream size : 764 KiB (5%)
General
Complete name : D:\Основной канал\1. Movavi Video Suite 18\На торрент\Как сделать в Movavi Video Suite 18\Доп. файлы\6. Анимация иконок в Movavi Video Suite 18\2 вариант Анимация иконок.wmv
Format : Windows Media
File size : 3.24 MiB
Duration : 8 s 33 ms
Overall bit rate : 3 379 kb/s
Maximum Overall bit rate : 320 kb/s
Encoded date : UTC 1970-01-01 00:00:00.000
WM/EncodingSettings : Lavf58.12.100
Video
ID : 1
Format : WMV2
Codec ID : WMV2
Codec ID/Info : Windows Media Video 8
Description of the codec : wmv2
Duration : 8 s 41 ms
Bit rate : 2 916 kb/s
Width : 1 920 pixels
Height : 1 080 pixels
Display aspect ratio : 16:9
Frame rate : 29.970 (29970/1000) FPS
Bit depth : 8 bits
Bits/(Pixel*Frame) : 0.047
Stream size : 2.80 MiB (86%)
Audio
ID : 2
Format : WMA
Format version : Version 2
Codec ID : 161
Codec ID/Info : Windows Media Audio
Description of the codec : Windows Media Audio V8
Duration : 8 s 32 ms
Bit rate : 320 kb/s
Channel(s) : 2 channels
Sampling rate : 44.1 kHz
Bit depth : 16 bits
Stream size : 314 KiB (9%)
General
Complete name : D:\Основной канал\1. Movavi Video Suite 18\На торрент\Как сделать в Movavi Video Suite 18\Доп. файлы\8. Эффект перемотки в Movavi Video Suite 18\00570.mp3
Format : MPEG Audio
File size : 533 KiB
Duration : 34 s 37 ms
Overall bit rate mode : Constant
Overall bit rate : 128 kb/s
Track name : http://noisefx.ru
Genre : Other
Audio
Format : MPEG Audio
Format version : Version 1
Format profile : Layer 3
Duration : 34 s 37 ms
Bit rate mode : Constant
Bit rate : 128 kb/s
Channel(s) : 2 channels
Sampling rate : 44.1 kHz
Frame rate : 38.281 FPS (1152 SPF)
Compression mode : Lossy
Stream size : 532 KiB (100%)
General
Complete name : D:\Основной канал\1. Movavi Video Suite 18\На торрент\Как сделать в Movavi Video Suite 18\Доп. файлы\8. Эффект перемотки в Movavi Video Suite 18\Free Rewind Video Effect-- ФУТАЖ ПЕРЕМОТКА.mp4
Format : MPEG-4
Format profile : Base Media / Version 2
Codec ID : mp42 (isom/mp42)
File size : 291 KiB
Duration : 2 s 20 ms
Overall bit rate mode : Variable
Overall bit rate : 1 179 kb/s
Encoded date : UTC 2016-08-28 13:25:44
Tagged date : UTC 2016-08-28 13:25:44
gsst : 0
gstd : 2066
Video
ID : 1
Format : AVC
Format/Info : Advanced Video Codec
Format profile : Main@L3.1
Format settings : CABAC / 3 Ref Frames
Format settings, CABAC : Yes
Format settings, RefFrames : 3 frames
Codec ID : avc1
Codec ID/Info : Advanced Video Coding
Duration : 2 s 0 ms
Bit rate : 1 054 kb/s
Width : 1 280 pixels
Height : 720 pixels
Display aspect ratio : 16:9
Frame rate mode : Constant
Frame rate : 30.000 FPS
Color space : YUV
Chroma subsampling : 4:2:0
Bit depth : 8 bits
Scan type : Progressive
Bits/(Pixel*Frame) : 0.038
Stream size : 257 KiB (89%)
Title : ISO Media file produced by Google Inc.
Encoded date : UTC 2016-08-28 13:25:44
Tagged date : UTC 2016-08-28 13:25:44
Color range : Limited
Color primaries : BT.709
Transfer characteristics : BT.709
Matrix coefficients : BT.709
Codec configuration box : avcC
Audio
ID : 2
Format : AAC LC
Format/Info : Advanced Audio Codec Low Complexity
Codec ID : mp4a-40-2
Duration : 2 s 20 ms
Bit rate mode : Variable
Bit rate : 127 kb/s
Channel(s) : 2 channels
Channel layout : L R
Sampling rate : 44.1 kHz
Frame rate : 43.066 FPS (1024 SPF)
Compression mode : Lossy
Stream size : 31.3 KiB (11%)
Title : ISO Media file produced by Google Inc.
Encoded date : UTC 2016-08-28 13:25:44
Tagged date : UTC 2016-08-28 13:25:44
Скриншоты:
Скачать .torrent

Для того, чтобы скачать торрент-файл

Алексей Ларченко - Как сделать в Movavi Video Suite 18 (2018-2019)

с нашего сайта, Вам необходимо Войти на сайт под своим логином! Если у Вас ещё нет логина, тогда Вам нужно сначала Зарегистрироваться!

Как скачивать? · Что такое торрент? · Рейтинг и ограничения

Показать сообщения:    
Ответить на тему

Алексей Ларченко - Как сделать в Movavi Video Suite 18 (2018-2019) скачать торрент (torrent), видеоуроки, тренинги, обучающее видео и видеокурсы

Текущее время: Сегодня 06:52

Часовой пояс: GMT + 4



Вы не можете начинать темы
Вы не можете отвечать на сообщения
Вы не можете редактировать свои сообщения
Вы не можете удалять свои сообщения
Вы не можете голосовать в опросах
Вы не можете прикреплять файлы к сообщениям
Вы не можете скачивать файлы