Itproger - Курс по изучению PHP и MySQL до профи (2018)

Ответить на тему
 
Автор Сообщение

Yulya ®

Itproger | Курс по изучению PHP и MySQL до профи (2018) PCRec [H.264/1080p-LQ] - Автор (режиссер): Itproger
Жанр: Программирование, PHP, MySQL
Описание:
Видеокурс рассчитан на новичков, которые хотят научиться программировать на PHP и создавать динамически сайты на нем. В ходе курса вы научитесь работать с PHP, а также с базами данных MySQL (PDO). На основе полученных знаний вы создадите полноценный веб сайт с регистрацией, авторизацией, комментариями, динамичными страницами и многим другим
Продолжительность: 07:52:46
Качество видео: PCRec
Видео: AVC/H.264, 1920x1080, ~768-6143 Kbps
Аудио: AAC, 2 ch, 256 Kbps

Mediainfo:

Общее
Полное имя : .\01 PHP\#16 - Инкапсуляция и полиморфизм.mp4
Формат : MPEG-4
Профиль формата : Base Media / Version 2
Идентификатор кодека : mp42 (mp41/mp42/isom)
Размер файла : 60,6 Мбайт
Продолжительность : 4 м. 16 с.
Режим общего битрейта : Переменный
Общий поток : 1981 Кбит/сек
Название фильма : PHP
Movie_More : Введите тут описание своего видео PHP
Дата кодирования : UTC 2018-10-08 15:19:11
Дата пометки : UTC 2018-10-08 15:21:38
thmb : яШяа
Видео
Идентификатор : 2
Формат : AVC
Формат/Информация : Advanced Video Codec
Профиль формата : High@L4
Настройки формата : CABAC / 2 Ref Frames
Параметр CABAC формата : Да
Параметр RefFrames формата : 2 кадра
Параметр GOP формата : M=1, N=30
Идентификатор кодека : avc1
Идентификатор кодека/Информация : Advanced Video Coding
Продолжительность : 4 м. 16 с.
Вид битрейта : Переменный
Битрейт : 1726 Кбит/сек
Максимальный битрейт : 768 Кбит/сек
Ширина : 1920 пикселей
Высота : 1080 пикселей
Соотношение сторон : 16:9
Режим частоты кадров : Постоянный
Частота кадров : 29,970 (30000/1001) кадров/сек
Цветовое пространство : YUV
Субдискретизация насыщенности : 4:2:0
Битовая глубина : 8 бит
Тип развёртки : Прогрессивная
Бит/(Пиксели*Кадры) : 0.028
Размер потока : 52,8 Мбайт (87%)
Заголовок : Core Media Video
Дата кодирования : UTC 2018-10-08 15:19:11
Дата пометки : UTC 2018-10-08 15:21:38
Цветовой диапазон : Limited
Основные цвета : BT.709
Характеристики трансфера : BT.709
Коэффициенты матрицы : BT.709
Аудио
Идентификатор : 1
Формат : AAC
Формат/Информация : Advanced Audio Codec
Профиль формата : LC
Идентификатор кодека : mp4a-40-2
Продолжительность : 4 м. 16 с.
Продолжительность оригинала : 4 м. 16 с.
Вид битрейта : Постоянный
Битрейт : 256 Кбит/сек
Каналы : 2 канала
Расположение каналов : Front: L R
Частота : 48,0 КГц
Частота кадров : 46,875 кадров/сек (1024 SPF)
Метод сжатия : С потерями
Размер потока : 7,56 Мбайт (12%)
Размер потока оригинала : 7,56 Мбайт (12%)
Заголовок : Core Media Audio
Язык : Russian
Дата кодирования : UTC 2018-10-08 15:19:11
Дата пометки : UTC 2018-10-08 15:21:38

Программа обучения:

План курса PHP:
#1 - Введение в PHP и запуск локального сервера
#2 - Вывод информации, комментарии, строковые операции
#3 - Переменные, типы данных, константы и операции над ними
#4 - Условные операторы (три типа условий)
#5 - Массивы данных (3 типа массивов), а также цикл foreach
#6 - Циклы For, While, Do While, а также операторы
#7 - Динамическое подключение файлов в проект
#8 - Функции, а также область видимости переменных
#9 - Методы GET и POST. Создание формы
#10 - Работа с файлами (запись в файл и чтение)
#11 - Сохранение данных Cookie и сессии
#12 - Работа с датой, встроенные функции PHP, массив $_SERVER
#13 - Основы ООП. Создание классов и объектов
#14 - Методы, конструкторы и деструкторы класса
#15 - Наследование классов и свойство protected
#16 - Инкапсуляция и полиморфизм
#17 - Интерфейсы, трейты и абстрактный класс
План курса MySQL:
#1 - Введение в базы данных, установка сервера и PhpMyAdmin
#2 - Создание базы данных, табличек и подключение к ней
#3 - Выборка значений из базы данных
#4 - Добавление данных в таблицу (INSERT, UPDATE, DELETE)
Создание сайта:
#1 - Создание главной страницы сайта
#2 - Регистрация на сайте и добавление в БД
#3 - Ajax регистрация (асинхронное программирование)
#4 - Авторизация и выход с учетной записи
#5 - Добавление статей в БД через интерфейс сайта
#6 - Вывод всех статей из базы данных
#7 - Динамически изменяемые страницы статей
#8 - Форма добавление комментариев к статьям
#9 - Отправка почты с сайта
Скриншоты:
Скачать .torrent

Для того, чтобы скачать торрент-файл

Itproger - Курс по изучению PHP и MySQL до профи (2018)

с нашего сайта, Вам необходимо Войти на сайт под своим логином! Если у Вас ещё нет логина, тогда Вам нужно сначала Зарегистрироваться!

Как скачивать? · Что такое торрент? · Рейтинг и ограничения

Показать сообщения:    
Ответить на тему

Itproger - Курс по изучению PHP и MySQL до профи (2018) скачать торрент (torrent), видеоуроки, тренинги, обучающее видео и видеокурсы

Текущее время: Сегодня 14:17

Часовой пояс: GMT + 4



Вы не можете начинать темы
Вы не можете отвечать на сообщения
Вы не можете редактировать свои сообщения
Вы не можете удалять свои сообщения
Вы не можете голосовать в опросах
Вы не можете прикреплять файлы к сообщениям
Вы не можете скачивать файлы