Udemy - Основы Nginx / Nginx Fundamentals (2018)

Ответить на тему
 
Автор Сообщение

Yulya ®

Udemy | Основы Nginx / Nginx Fundamentals (2018) PCRec [H.264/720p-LQ] - Автор (режиссер): Ray Viljoen
Производство: Udemy
Жанр: Программирование
Описание:
С помощью этого курса вы изучите основы и у вас появится понимание того, как работает Nginx и как с ним работать. Этот курс подойдет всем, кто имеет базовое представление о том как работают сети и как работать в командной строке.
Курс начинается с рассмотрения различий между Nginx и Apache, позже речь пойдет про различные способы установки Nginx, кастомную установку и настройку Nginx как сервиса.
Продолжительность: 02:40:45
Качество видео: PCRec
Видео: AVC/H.264, 1280x720, ~601-3133 Kbps
Аудио: AAC, 2 ch, 191-193 Kbps

Mediainfo:

Общее
Полное имя : .\01 Обзор\002. Об Nginx.mp4
Формат : MPEG-4
Профиль формата : Base Media / Version 2
Идентификатор кодека : mp42 (mp42/isom)
Размер файла : 17,8 Мбайт
Продолжительность : 1 м. 28 с.
Режим общего битрейта : Переменный
Общий поток : 1693 Кбит/сек
Дата кодирования : UTC 2018-05-20 21:52:25
Дата пометки : UTC 2018-05-20 21:52:25
Видео
Идентификатор : 2
Формат : AVC
Формат/Информация : Advanced Video Codec
Профиль формата : Main@L3.2
Настройки формата : CABAC / 3 Ref Frames
Параметр CABAC формата : Да
Параметр RefFrames формата : 3 кадра
Параметр GOP формата : M=4, N=15
Идентификатор кодека : avc1
Идентификатор кодека/Информация : Advanced Video Coding
Продолжительность : 1 м. 28 с.
Вид битрейта : Переменный
Битрейт : 1496 Кбит/сек
Максимальный битрейт : 4000 Кбит/сек
Ширина : 1280 пикселей
Высота : 720 пикселей
Соотношение сторон : 16:9
Режим частоты кадров : Постоянный
Частота кадров : 30,000 кадров/сек
Стандарт вещания : NTSC
Цветовое пространство : YUV
Субдискретизация насыщенности : 4:2:0
Битовая глубина : 8 бит
Тип развёртки : Прогрессивная
Бит/(Пиксели*Кадры) : 0.054
Размер потока : 15,7 Мбайт (88%)
Язык : English
Дата кодирования : UTC 2018-05-20 21:52:25
Дата пометки : UTC 2018-05-20 21:52:25
Цветовой диапазон : Limited
Аудио
Идентификатор : 1
Формат : AAC
Формат/Информация : Advanced Audio Codec
Профиль формата : LC
Идентификатор кодека : mp4a-40-2
Продолжительность : 1 м. 27 с.
Вид битрейта : Постоянный
Битрейт : 192 Кбит/сек
Каналы : channel0
Channel(s)_Original : 2 канала
Расположение каналов : Front: L R
Частота : 48,0 КГц
Частота кадров : 46,875 кадров/сек (1024 SPF)
Метод сжатия : С потерями
Размер потока : 2,01 Мбайт (11%)
Язык : English
Дата кодирования : UTC 2018-05-20 21:52:25
Дата пометки : UTC 2018-05-20 21:52:25

Содержание:

Обзор:
Введение
Об Nginx
Nginx против Apache
Установка:
Установка Nginx с помощью менеджера пакетов
Сборка Nginx из исходного кода
NginX в качестве сервиса и обновление кастомного билда
Nginx под Windows
Конфигурация:
Термины в настройках
Создаем виртуальный хост
Блоки Location
Логгирование:
Наследование и типы директив
Настройка backend
Настройка воркеров Nginx и другие полезные директивы
Динамические модули
Лучшее в Nginx:
Заголовки Expires
Gzip
FastCGI Cache
Лимиты
Стриминг видео
GeoIP
HTTP2
Безопасность:
SSL
Базовая аутентификация
Повышение безопасности Nginx
SSL-сертификаты Let’s Encrypt
Обратный прокси и Балансировка нагрузки:
Подготовка
Обратный прокси-сервер
Балансировщик нагрузки
Варианты балансировки нагрузки
Ресурсы про Nginx:
Документация и ресурсы
Заключение
Скриншоты:
Скачать .torrent

Для того, чтобы скачать торрент-файл

Udemy - Основы Nginx / Nginx Fundamentals (2018)

с нашего сайта, Вам необходимо Войти на сайт под своим логином! Если у Вас ещё нет логина, тогда Вам нужно сначала Зарегистрироваться!

Как скачивать? · Что такое торрент? · Рейтинг и ограничения

Показать сообщения:    
Ответить на тему

Udemy - Основы Nginx / Nginx Fundamentals (2018) скачать торрент (torrent), видеоуроки, тренинги, обучающее видео и видеокурсы

Текущее время: Сегодня 13:08

Часовой пояс: GMT + 4



Вы не можете начинать темы
Вы не можете отвечать на сообщения
Вы не можете редактировать свои сообщения
Вы не можете удалять свои сообщения
Вы не можете голосовать в опросах
Вы не можете прикреплять файлы к сообщениям
Вы не можете скачивать файлы