Последнее из V.I.P.-раздела

16-Июн-19 05:55
16-Июн-19 05:53
16-Июн-19 05:50
16-Июн-19 05:45
16-Июн-19 05:42
16-Июн-19 05:34
16-Июн-19 05:31
16-Июн-19 05:30
16-Июн-19 05:27
16-Июн-19 05:25

JavaBegin - Основы Java (2012-2016)

Ответить на тему
 
Автор Сообщение

Yulya ®

JavaBegin | Основы Java (2012-2016) PCRec [H.264] - Автор (режиссер): JavaBegin
Жанр: Программирование, Java
Описание:
Фундаментальные знания для того, чтобы начать профессионально разрабатывать Java приложения. Программа-минимум для всех новичков.
Продолжительность: 57:56:10
Качество видео: PCRec
Видео: AVC/H.264, 854x480-1844x1014, ~47-1710 Kbps
Аудио: AAC, 2 ch, 53-126 Kbps

Mediainfo:

Общее
Полное имя : .\8.uml\2.Подготовка\video\2-Уровни приложения.mp4
Формат : MPEG-4
Профиль формата : Base Media / Version 2
Идентификатор кодека : mp42 (isom/mp42)
Размер файла : 2,50 Мбайт
Продолжительность : 3 м. 23 с.
Режим общего битрейта : Переменный
Общий поток : 103 Кбит/сек
Дата кодирования : UTC 2015-09-15 18:02:09
Дата пометки : UTC 2015-09-15 18:02:09
Видео
Идентификатор : 1
Формат : AVC
Формат/Информация : Advanced Video Codec
Профиль формата : Baseline@L3
Настройки формата : 3 Ref Frames
Параметр CABAC формата : Нет
Параметр RefFrames формата : 3 кадра
Параметр GOP формата : M=1, N=125
Идентификатор кодека : avc1
Идентификатор кодека/Информация : Advanced Video Coding
Продолжительность : 3 м. 23 с.
Битрейт : 47,2 Кбит/сек
Ширина : 854 пикселя
Высота : 480 пикселей
Соотношение сторон : 16:9
Режим частоты кадров : Постоянный
Частота кадров : 25,000 кадров/сек
Стандарт вещания : PAL
Цветовое пространство : YUV
Субдискретизация насыщенности : 4:2:0
Битовая глубина : 8 бит
Тип развёртки : Прогрессивная
Бит/(Пиксели*Кадры) : 0.005
Размер потока : 1,14 Мбайт (46%)
Язык : English
Дата кодирования : UTC 2015-09-15 18:02:09
Дата пометки : UTC 2015-09-15 18:02:09
Цветовой диапазон : Limited
Аудио
Идентификатор : 2
Формат : AAC
Формат/Информация : Advanced Audio Codec
Профиль формата : LC
Идентификатор кодека : mp4a-40-2
Продолжительность : 3 м. 23 с.
Продолжительность оригинала : 3 м. 23 с.
Вид битрейта : Переменный
Битрейт : 53,7 Кбит/сек
Максимальный битрейт : 69,3 Кбит/сек
Каналы : 2 канала
Расположение каналов : Front: L R
Частота : 44,1 КГц
Частота кадров : 43,066 кадра/сек (1024 SPF)
Метод сжатия : С потерями
Размер потока : 1,30 Мбайт (52%)
Размер потока оригинала : 1,30 Мбайт (52%)
Язык : English
Дата кодирования : UTC 2015-09-15 18:02:09
Дата пометки : UTC 2015-09-15 18:02:09
mdhd_Duration : 203035
Общее
Полное имя : .\6.swing\AutoPlay\course\video\GUI\1-CreateFrame.mp4
Формат : MPEG-4
Профиль формата : Base Media / Version 2
Идентификатор кодека : mp42 (M4V /mp42/isom)
Размер файла : 28,0 Мбайт
Продолжительность : 21 м. 42 с.
Общий поток : 181 Кбит/сек
Дата кодирования : UTC 2012-06-26 14:10:29
Дата пометки : UTC 2012-06-26 14:10:29
Видео
Идентификатор : 1
Формат : AVC
Формат/Информация : Advanced Video Codec
Профиль формата : High@L3.2
Настройки формата : CABAC / 4 Ref Frames
Параметр CABAC формата : Да
Параметр RefFrames формата : 4 кадра
Параметр GOP формата : M=1, N=75
Идентификатор кодека : avc1
Идентификатор кодека/Информация : Advanced Video Coding
Продолжительность : 21 м. 42 с.
Продолжительность оригинала : 21 м. 42 с.
Битрейт : 125 Кбит/сек
Ширина : 1280 пикселей
Высота : 800 пикселей
Соотношение сторон : 16:10
Режим частоты кадров : Постоянный
Частота кадров : 15,000 кадров/сек
Цветовое пространство : YUV
Субдискретизация насыщенности : 4:2:0
Битовая глубина : 8 бит
Тип развёртки : Прогрессивная
Бит/(Пиксели*Кадры) : 0.008
Размер потока : 19,4 Мбайт (69%)
Размер потока оригинала : 19,4 Мбайт (69%)
Язык : English
Дата кодирования : UTC 2012-06-26 14:10:29
Дата пометки : UTC 2012-06-26 14:10:29
Цветовой диапазон : Limited
Основные цвета : BT.709
Характеристики трансфера : BT.709
Коэффициенты матрицы : BT.709
mdhd_Duration : 1302125
Аудио
Идентификатор : 2
Формат : AAC
Формат/Информация : Advanced Audio Codec
Профиль формата : LC
Идентификатор кодека : mp4a-40-2
Продолжительность : 21 м. 42 с.
Продолжительность оригинала : 21 м. 42 с.
Вид битрейта : Постоянный
Битрейт : 53,6 Кбит/сек
Каналы : 2 канала
Расположение каналов : Front: L R
Частота : 44,1 КГц
Частота кадров : 43,066 кадра/сек (1024 SPF)
Метод сжатия : С потерями
Размер потока : 8,32 Мбайт (30%)
Размер потока оригинала : 8,32 Мбайт (30%)
Язык : English
Дата кодирования : UTC 2012-06-26 14:10:29
Дата пометки : UTC 2012-06-26 14:10:29
mdhd_Duration : 1301441
Общее
Полное имя : .\5.bd2\video\13-Vozmojznie problemi.mp4
Формат : MPEG-4
Профиль формата : Base Media / Version 2
Идентификатор кодека : mp42 (isom/mp42)
Размер файла : 13,1 Мбайт
Продолжительность : 7 м. 22 с.
Режим общего битрейта : Переменный
Общий поток : 249 Кбит/сек
Дата кодирования : UTC 2016-01-16 17:13:55
Дата пометки : UTC 2016-01-16 17:13:55
Видео
Идентификатор : 1
Формат : AVC
Формат/Информация : Advanced Video Codec
Профиль формата : Baseline@L4
Настройки формата : 3 Ref Frames
Параметр CABAC формата : Нет
Параметр RefFrames формата : 3 кадра
Идентификатор кодека : avc1
Идентификатор кодека/Информация : Advanced Video Coding
Продолжительность : 7 м. 22 с.
Продолжительность оригинала : 7 м. 22 с.
Битрейт : 120 Кбит/сек
Ширина : 1796 пикселей
Высота : 1012 пикселей
Соотношение сторон : 16:9
Режим частоты кадров : Переменный
Частота кадров : 30,000 кадров/сек
Минимальная частота кадров : 30,000 кадров/сек
Максимальная частота кадров : 30,030 кадров/сек
Стандарт вещания : NTSC
Цветовое пространство : YUV
Субдискретизация насыщенности : 4:2:0
Битовая глубина : 8 бит
Тип развёртки : Прогрессивная
Бит/(Пиксели*Кадры) : 0.002
Размер потока : 6,34 Мбайт (48%)
Размер потока оригинала : 6,34 Мбайт (48%)
Язык : English
Дата кодирования : UTC 2016-01-16 17:13:55
Дата пометки : UTC 2016-01-16 17:13:55
Цветовой диапазон : Limited
mdhd_Duration : 442833
Аудио
Идентификатор : 2
Формат : AAC
Формат/Информация : Advanced Audio Codec
Профиль формата : LC
Идентификатор кодека : mp4a-40-2
Продолжительность : 7 м. 22 с.
Продолжительность оригинала : 7 м. 22 с.
Вид битрейта : Переменный
Битрейт : 126 Кбит/сек
Максимальный битрейт : 164 Кбит/сек
Каналы : 2 канала
Расположение каналов : Front: L R
Частота : 44,1 КГц
Частота кадров : 43,066 кадра/сек (1024 SPF)
Метод сжатия : С потерями
Размер потока : 6,63 Мбайт (51%)
Размер потока оригинала : 6,63 Мбайт (51%)
Язык : English
Дата кодирования : UTC 2016-01-16 17:13:55
Дата пометки : UTC 2016-01-16 17:13:55
mdhd_Duration : 442874
Общее
Полное имя : .\7.patterns_training\video\13-Profiling_h.mp4
Формат : MPEG-4
Профиль формата : Base Media / Version 2
Идентификатор кодека : mp42 (isom/mp42)
Размер файла : 56,3 Мбайт
Продолжительность : 13 м. 51 с.
Режим общего битрейта : Переменный
Общий поток : 568 Кбит/сек
Дата кодирования : UTC 2014-02-24 06:02:01
Дата пометки : UTC 2014-02-24 06:02:01
Видео
Идентификатор : 1
Формат : AVC
Формат/Информация : Advanced Video Codec
Профиль формата : Baseline@L4
Настройки формата : 3 Ref Frames
Параметр CABAC формата : Нет
Параметр RefFrames формата : 3 кадра
Идентификатор кодека : avc1
Идентификатор кодека/Информация : Advanced Video Coding
Продолжительность : 13 м. 51 с.
Продолжительность оригинала : 13 м. 51 с.
Битрейт : 440 Кбит/сек
Ширина : 1844 пикселя
Высота : 1014 пикселей
Соотношение сторон : 16:9
Режим частоты кадров : Переменный
Частота кадров : 30,000 кадров/сек
Минимальная частота кадров : 30,000 кадров/сек
Максимальная частота кадров : 30,030 кадров/сек
Стандарт вещания : NTSC
Цветовое пространство : YUV
Субдискретизация насыщенности : 4:2:0
Битовая глубина : 8 бит
Тип развёртки : Прогрессивная
Бит/(Пиксели*Кадры) : 0.008
Размер потока : 43,6 Мбайт (77%)
Размер потока оригинала : 43,6 Мбайт (77%)
Язык : English
Дата кодирования : UTC 2014-02-24 06:02:02
Дата пометки : UTC 2014-02-24 06:02:02
Цветовой диапазон : Limited
mdhd_Duration : 831800
Аудио
Идентификатор : 2
Формат : AAC
Формат/Информация : Advanced Audio Codec
Профиль формата : LC
Идентификатор кодека : mp4a-40-2
Продолжительность : 13 м. 51 с.
Продолжительность оригинала : 13 м. 51 с.
Вид битрейта : Переменный
Битрейт : 126 Кбит/сек
Максимальный битрейт : 167 Кбит/сек
Каналы : 2 канала
Расположение каналов : Front: L R
Частота : 44,1 КГц
Частота кадров : 43,066 кадра/сек (1024 SPF)
Метод сжатия : С потерями
Размер потока : 12,5 Мбайт (22%)
Размер потока оригинала : 12,5 Мбайт (22%)
Язык : English
Дата кодирования : UTC 2014-02-24 06:02:02
Дата пометки : UTC 2014-02-24 06:02:02
mdhd_Duration : 831832

Дополнительная информация:

В раздаче имеются архивы! В них содержится дополнительные материалы.
Скриншоты:
Скачать .torrent

Для того, чтобы скачать торрент-файл

JavaBegin - Основы Java (2012-2016)

с нашего сайта, Вам необходимо Войти на сайт под своим логином! Если у Вас ещё нет логина, тогда Вам нужно сначала Зарегистрироваться!

Как скачивать? · Что такое торрент? · Рейтинг и ограничения

Показать сообщения:    
Ответить на тему

JavaBegin - Основы Java (2012-2016) скачать торрент (torrent), видеоуроки, тренинги, обучающее видео и видеокурсы

Текущее время: Сегодня 18:36

Часовой пояс: GMT + 4



Вы не можете начинать темы
Вы не можете отвечать на сообщения
Вы не можете редактировать свои сообщения
Вы не можете удалять свои сообщения
Вы не можете голосовать в опросах
Вы не можете прикреплять файлы к сообщениям
Вы не можете скачивать файлы