Последнее из V.I.P.-раздела

16-Июн-19 05:55
16-Июн-19 05:53
16-Июн-19 05:50
16-Июн-19 05:45
16-Июн-19 05:42
16-Июн-19 05:34
16-Июн-19 05:31
16-Июн-19 05:30
16-Июн-19 05:27
16-Июн-19 05:25

Coursera - Искусство разработки на современном C++ (2018)

Ответить на тему
 
Автор Сообщение

Yulya ®

Coursera | Искусство разработки на современном C++ (2018) WEB-DL [H.264/720p-LQ]- Автор (режиссер): Coursera / МФТИ / Yandex
Жанр: Программирование, C++
Описание:
В специализации преподаватели делятся своим многолетним опытом создания больших проектов на языке C++. Они не пересказывают учебник, а учат решать задачи, с которыми на практике сталкиваются большинство разработчиков. Лекции, подаваемые в лёгкой и доступной форме, подкрепляются большим количество задач по программированию. Закончив эту специализацию, вы сможете не только рассуждать о C++, сравнивая его с другими языками, но и получите реальный навык программирования.
Продолжительность: 26:00:06
Качество видео: WEB-DL
Видео: AVC/H.264, 1280x720, ~779 Kbps
Аудио: AAC, 2 ch, 128 Kbps

Mediainfo:

General
Complete name : 01_chto-vas-zhdiet.mp4
Format : MPEG-4
Format profile : Base Media
Codec ID : isom (isom/iso2/avc1/mp41)
File size : 10.4 MiB
Duration : 1 min 34 s
Overall bit rate : 920 kb/s
Writing application : Lavf55.33.100
Video
ID : 1
Format : AVC
Format/Info : Advanced Video Codec
Format profile : Main@L3.1
Format settings : CABAC / 4 Ref Frames
Format settings, CABAC : Yes
Format settings, ReFrames : 4 frames
Codec ID : avc1
Codec ID/Info : Advanced Video Coding
Duration : 1 min 34 s
Bit rate : 779 kb/s
Width : 1 280 pixels
Height : 720 pixels
Display aspect ratio : 16:9
Frame rate mode : Constant
Frame rate : 60.000 FPS
Color space : YUV
Chroma subsampling : 4:2:0
Bit depth : 8 bits
Scan type : Progressive
Bits/(Pixel*Frame) : 0.014
Stream size : 8.81 MiB (85%)
Writing library : x264 core 142
Encoding settings : cabac=1 / ref=3 / deblock=1:0:0 / analyse=0x1:0x111 / me=hex / subme=7 / psy=1 / psy_rd=1.00:0.00 / mixed_ref=1 / me_range=16 / chroma_me=1 / trellis=1 / 8x8dct=0 / cqm=0 / deadzone=21,11 / fast_pskip=1 / chroma_qp_offset=-2 / threads=12 / lookahead_threads=2 / sliced_threads=0 / nr=0 / decimate=1 / interlaced=0 / bluray_compat=0 / constrained_intra=0 / bframes=3 / b_pyramid=2 / b_adapt=1 / b_bias=0 / direct=1 / weightb=1 / open_gop=0 / weightp=2 / keyint=250 / keyint_min=25 / scenecut=40 / intra_refresh=0 / rc_lookahead=40 / rc=crf / mbtree=1 / crf=24.0 / qcomp=0.60 / qpmin=0 / qpmax=69 / qpstep=4 / ip_ratio=1.40 / aq=1:1.00
Language : English
Codec configuration box : avcC
Audio
ID : 2
Format : AAC LC
Format/Info : Advanced Audio Codec Low Complexity
Codec ID : mp4a-40-2
Duration : 1 min 34 s
Duration_LastFrame : -6 ms
Bit rate mode : Constant
Bit rate : 128 kb/s
Channel(s) : 2 channels
Channel layout : L R
Sampling rate : 44.1 kHz
Frame rate : 43.066 FPS (1024 SPF)
Compression mode : Lossy
Stream size : 1.45 MiB (14%)
Language : English
Default : Yes
Alternate group : 1
Скриншоты:
Скачать .torrent

Для того, чтобы скачать торрент-файл

Coursera - Искусство разработки на современном C++ (2018)

с нашего сайта, Вам необходимо Войти на сайт под своим логином! Если у Вас ещё нет логина, тогда Вам нужно сначала Зарегистрироваться!

Как скачивать? · Что такое торрент? · Рейтинг и ограничения

Показать сообщения:    
Ответить на тему

Coursera - Искусство разработки на современном C++ (2018) скачать торрент (torrent), видеоуроки, тренинги, обучающее видео и видеокурсы

Текущее время: Сегодня 18:30

Часовой пояс: GMT + 4



Вы не можете начинать темы
Вы не можете отвечать на сообщения
Вы не можете редактировать свои сообщения
Вы не можете удалять свои сообщения
Вы не можете голосовать в опросах
Вы не можете прикреплять файлы к сообщениям
Вы не можете скачивать файлы