Последнее из V.I.P.-раздела

16-Июн-19 05:55
16-Июн-19 05:53
16-Июн-19 05:50
16-Июн-19 05:45
16-Июн-19 05:42
16-Июн-19 05:34
16-Июн-19 05:31
16-Июн-19 05:30
16-Июн-19 05:27
16-Июн-19 05:25

doge.codes - Онлайн интенсив по React и Redux (2018)

Ответить на тему
 
Автор Сообщение

Yulya ®

doge.codes | Онлайн интенсив по React и Redux (2018) PCRec [H.264] - Автор (режиссер): doge.codes
Жанр: Программирование, JavaScript, React, Redux
Описание:
За 6 недель ты изучишь самую востребованную библиотеку для веба. Напишешь реальный проект и поймешь весь цикл разработки современного фронтенд приложения!
Продолжительность: 09:23:26
Качество видео: PCRec
Видео: AVC/H.264, 1152x720-1920x1080, ~221-6880 Kbps
Аудио: AAC, 2 ch, 127-128 Kbps

Mediainfo:

Общее
Полное имя : .\week5\030 Добавляем PropTypes.mp4
Формат : MPEG-4
Профиль формата : Base Media / Version 2
Идентификатор кодека : mp42 (isom/mp42)
Размер файла : 155 Мбайт
Продолжительность : 20 м. 33 с.
Режим общего битрейта : Переменный
Общий поток : 1056 Кбит/сек
Дата кодирования : UTC 2018-11-25 10:28:44
Дата пометки : UTC 2018-11-25 10:28:44
Программа кодирования : Google
gsst : 0
gstd : 1233955
Видео
Идентификатор : 1
Формат : AVC
Формат/Информация : Advanced Video Codec
Профиль формата : High@L3.1
Настройки формата : CABAC / 1 Ref Frames
Параметр CABAC формата : Да
Параметр RefFrames формата : 1 кадр
Параметр GOP формата : M=1, N=60
Идентификатор кодека : avc1
Идентификатор кодека/Информация : Advanced Video Coding
Продолжительность : 20 м. 33 с.
Duration_LastFrame : -1 мс.
Битрейт : 926 Кбит/сек
Ширина : 1152 пикселя
Высота : 720 пикселей
Соотношение сторон : 16:10
Режим частоты кадров : Постоянный
Частота кадров : 29,970 (30000/1001) кадров/сек
Цветовое пространство : YUV
Субдискретизация насыщенности : 4:2:0
Битовая глубина : 8 бит
Тип развёртки : Прогрессивная
Бит/(Пиксели*Кадры) : 0.037
Размер потока : 136 Мбайт (88%)
Заголовок : ISO Media file produced by Google Inc. Created on: 11/25/2018.
Дата кодирования : UTC 2018-11-25 10:28:44
Дата пометки : UTC 2018-11-25 10:28:44
Цветовой диапазон : Limited
Основные цвета : BT.709
Характеристики трансфера : BT.709
Коэффициенты матрицы : BT.709
Codec configuration box : avcC
Аудио
Идентификатор : 2
Формат : AAC LC
Формат/Информация : Advanced Audio Codec Low Complexity
Идентификатор кодека : mp4a-40-2
Продолжительность : 20 м. 33 с.
Вид битрейта : Переменный
Битрейт : 128 Кбит/сек
Каналы : 2 канала
Channel layout : L R
Частота : 44,1 КГц
Частота кадров : 43,066 кадра/сек (1024 SPF)
Метод сжатия : С потерями
Размер потока : 18,8 Мбайт (12%)
Заголовок : ISO Media file produced by Google Inc. Created on: 11/25/2018.
Язык : English
Дата кодирования : UTC 2018-11-25 10:28:44
Дата пометки : UTC 2018-11-25 10:28:44
Общее
Полное имя : .\week0\002 Терминал.mp4
Формат : MPEG-4
Профиль формата : Base Media / Version 2
Идентификатор кодека : mp42 (isom/mp42)
Размер файла : 67,7 Мбайт
Продолжительность : 7 м. 45 с.
Режим общего битрейта : Переменный
Общий поток : 1220 Кбит/сек
Дата кодирования : UTC 2018-11-25 09:59:36
Дата пометки : UTC 2018-11-25 09:59:36
Программа кодирования : Google
gsst : 0
gstd : 465374
Видео
Идентификатор : 1
Формат : AVC
Формат/Информация : Advanced Video Codec
Профиль формата : High@L3.1
Настройки формата : CABAC / 3 Ref Frames
Параметр CABAC формата : Да
Параметр RefFrames формата : 3 кадра
Идентификатор кодека : avc1
Идентификатор кодека/Информация : Advanced Video Coding
Продолжительность : 7 м. 45 с.
Битрейт : 1088 Кбит/сек
Ширина : 1280 пикселей
Высота : 720 пикселей
Соотношение сторон : 16:9
Режим частоты кадров : Постоянный
Частота кадров : 25,000 кадров/сек
Цветовое пространство : YUV
Субдискретизация насыщенности : 4:2:0
Битовая глубина : 8 бит
Тип развёртки : Прогрессивная
Бит/(Пиксели*Кадры) : 0.047
Размер потока : 60,4 Мбайт (89%)
Заголовок : ISO Media file produced by Google Inc. Created on: 11/25/2018.
Дата кодирования : UTC 2018-11-25 09:59:36
Дата пометки : UTC 2018-11-25 09:59:36
Цветовой диапазон : Limited
Основные цвета : BT.709
Характеристики трансфера : BT.709
Коэффициенты матрицы : BT.709
Codec configuration box : avcC
Аудио
Идентификатор : 2
Формат : AAC LC
Формат/Информация : Advanced Audio Codec Low Complexity
Идентификатор кодека : mp4a-40-2
Продолжительность : 7 м. 45 с.
Вид битрейта : Переменный
Битрейт : 128 Кбит/сек
Каналы : 2 канала
Channel layout : L R
Частота : 44,1 КГц
Частота кадров : 43,066 кадра/сек (1024 SPF)
Метод сжатия : С потерями
Размер потока : 7,10 Мбайт (10%)
Заголовок : ISO Media file produced by Google Inc. Created on: 11/25/2018.
Язык : English
Дата кодирования : UTC 2018-11-25 09:59:36
Дата пометки : UTC 2018-11-25 09:59:36
Общее
Полное имя : .\week5\028 Настраиваем ESLint.mp4
Формат : MPEG-4
Профиль формата : Base Media / Version 2
Идентификатор кодека : mp42 (mp42/isom)
Размер файла : 805 Мбайт
Продолжительность : 16 м. 2 с.
Режим общего битрейта : Переменный
Общий поток : 7015 Кбит/сек
Дата кодирования : UTC 2018-03-13 22:17:48
Дата пометки : UTC 2018-03-13 22:17:48
Видео
Идентификатор : 2
Формат : AVC
Формат/Информация : Advanced Video Codec
Профиль формата : High@L4
Настройки формата : CABAC / 2 Ref Frames
Параметр CABAC формата : Да
Параметр RefFrames формата : 2 кадра
Параметр GOP формата : M=2, N=15
Идентификатор кодека : avc1
Идентификатор кодека/Информация : Advanced Video Coding
Продолжительность : 16 м. 2 с.
Продолжительность оригинала : 16 м. 2 с.
Вид битрейта : Переменный
Битрейт : 6883 Кбит/сек
Максимальный битрейт : 16,0 Мбит/сек
Ширина : 1920 пикселей
Высота : 1080 пикселей
Соотношение сторон : 16:9
Соотношение сторон в оригинале : 16:10
Режим частоты кадров : Постоянный
Частота кадров : 29,970 (30000/1001) кадров/сек
Цветовое пространство : YUV
Субдискретизация насыщенности : 4:2:0
Битовая глубина : 8 бит
Тип развёртки : Прогрессивная
Бит/(Пиксели*Кадры) : 0.111
Размер потока : 790 Мбайт (98%)
Размер потока оригинала : 790 Мбайт (98%)
Язык : English
Дата кодирования : UTC 2018-03-13 22:17:48
Дата пометки : UTC 2018-03-13 22:17:48
Codec configuration box : avcC
Аудио
Идентификатор : 1
Формат : AAC LC
Формат/Информация : Advanced Audio Codec Low Complexity
Идентификатор кодека : mp4a-40-2
Продолжительность : 16 м. 2 с.
Вид битрейта : Постоянный
Битрейт : 128 Кбит/сек
Каналы : 2 канала
Channel layout : L R
Частота : 48,0 КГц
Частота кадров : 46,875 кадров/сек (1024 SPF)
Метод сжатия : С потерями
Размер потока : 14,7 Мбайт (2%)
Язык : English
Дата кодирования : UTC 2018-03-13 22:17:48
Дата пометки : UTC 2018-03-13 22:17:48

Программа

0 неделя Подготовка
Мы установим весь необходимый софт и вспомним основы Git, JavaScript, HTML. Если ты всё уже знаешь, можешь пропустить. Но поверь, повторение будет не лишним
1 Неделя Первые коммиты и код ревью
Начинаем разрабатывать приложение. Вместе познакомимся с React и компонентным подходом, развернём каркас для нашего приложения и сверстаем макет.
2 Неделя Приложение оживает
Пора сделать твоё приложение динамическим. Добавляем роутер и запросы посредством fetch интерфейса — ведь в каждом современном приложении есть запросы к внешним ресурсам.
3 Неделя Продолжаем работу
Сделаем процесс разработки более удобным: добавляем логер и другие инструменты для отладки приложения. Изучаем на практике работу с API. Твоё приложение — это "каркас-шпаргалка" для будущих подвигов в разработке.
4 Неделя MVP уже готов
Делаем наш чат более интерактивным и удобным в использовании. Поговорим о работе с сокетами, обработке ошибок, гонках запросов и обрыве соединения с сервером. Доработаем напильником и отполируем всё до блеска.
5 Неделя Тестируем – и в продакшн
Приводим твой код в порядок. Настраиваем линтер с учётом всех тонкостей. Подключаем prettier — инструмент для стилистики кода. Тестируем компоненты с помощью smoke и snapshot-тестов. Из других прелестей: создание production-билд твоего приложения, который зальем на Heroku.
Скриншоты:
Скачать .torrent

Для того, чтобы скачать торрент-файл

doge.codes - Онлайн интенсив по React и Redux (2018)

с нашего сайта, Вам необходимо Войти на сайт под своим логином! Если у Вас ещё нет логина, тогда Вам нужно сначала Зарегистрироваться!

Как скачивать? · Что такое торрент? · Рейтинг и ограничения

Показать сообщения:    
Ответить на тему

doge.codes - Онлайн интенсив по React и Redux (2018) скачать торрент (torrent), видеоуроки, тренинги, обучающее видео и видеокурсы

Текущее время: Сегодня 18:30

Часовой пояс: GMT + 4



Вы не можете начинать темы
Вы не можете отвечать на сообщения
Вы не можете редактировать свои сообщения
Вы не можете удалять свои сообщения
Вы не можете голосовать в опросах
Вы не можете прикреплять файлы к сообщениям
Вы не можете скачивать файлы