javascript.ru - Продвинутый курс по Angular (2018)

Ответить на тему
 
Автор Сообщение

Yulya ®

javascript.ru | Продвинутый курс по Angular (2018) PCRec [H.264] - Автор (режиссер): Степан Суворов
Производство: javascript.ru
Жанр: Программирование, JavaScript, Angular
Описание:
Курс даст возможность быстро начать создавать свои приложения с использованием современного фреймворка - Angular. В процессе прохождения курса шаг за шагом вы сделаете реальное приложение, и хорошо разберетесь в специфике Angular.
Вы будете получать информацию, писать код, показывать его, получать обратную связь и советы, и затем – двигаться дальше.
Продолжительность: 13:29:51
Качество видео: PCRec
Видео: AVC/H.264, 1280x800-1664x1032, ~70-627 Kbps
Аудио: AAC, 1-2 ch, 63-150 Kbps

Mediainfo:

Общее
Полное имя : .\Допы\rxjs\1-setup.out.mp4
Формат : MPEG-4
Профиль формата : Base Media
Идентификатор кодека : isom (isom/iso2/avc1/mp41)
Размер файла : 2,04 Мбайт
Продолжительность : 1 м. 39 с.
Общий поток : 172 Кбит/сек
Программа кодирования : Lavf57.71.100
Видео
Идентификатор : 1
Формат : AVC
Формат/Информация : Advanced Video Codec
Профиль формата : High@L3.2
Настройки формата : CABAC / 4 Ref Frames
Параметр CABAC формата : Да
Параметр RefFrames формата : 4 кадра
Идентификатор кодека : avc1
Идентификатор кодека/Информация : Advanced Video Coding
Продолжительность : 1 м. 39 с.
Битрейт : 101 Кбит/сек
Ширина : 1280 пикселей
Высота : 800 пикселей
Соотношение сторон : 16:10
Режим частоты кадров : Постоянный
Частота кадров : 30,000 кадров/сек
Цветовое пространство : YUV
Субдискретизация насыщенности : 4:2:0
Битовая глубина : 8 бит
Тип развёртки : Прогрессивная
Бит/(Пиксели*Кадры) : 0.003
Размер потока : 1,20 Мбайт (59%)
Библиотека кодирования : x264 core 148 r2748 97eaef2
Настройки программы : cabac=1 / ref=1 / deblock=1:0:0 / analyse=0x3:0x113 / me=hex / subme=2 / psy=1 / psy_rd=1.00:0.00 / mixed_ref=0 / me_range=16 / chroma_me=1 / trellis=0 / 8x8dct=1 / cqm=0 / deadzone=21,11 / fast_pskip=1 / chroma_qp_offset=0 / threads=6 / lookahead_threads=2 / sliced_threads=0 / nr=0 / decimate=1 / interlaced=0 / bluray_compat=0 / constrained_intra=0 / bframes=3 / b_pyramid=2 / b_adapt=1 / b_bias=0 / direct=1 / weightb=1 / open_gop=0 / weightp=1 / keyint=250 / keyint_min=25 / scenecut=40 / intra_refresh=0 / rc_lookahead=10 / rc=crf / mbtree=1 / crf=27.0 / qcomp=0.60 / qpmin=0 / qpmax=69 / qpstep=4 / ip_ratio=1.40 / aq=1:1.00
Codec configuration box : avcC
Аудио
Идентификатор : 2
Формат : AAC LC SBR
Формат/Информация : Advanced Audio Codec Low Complexity with Spectral Band Replication
Коммерческое название : HE-AAC
Настройки формата : NBC
Идентификатор кодека : mp4a-40-5
Продолжительность : 1 м. 39 с.
Duration_LastFrame : -25 мс.
Вид битрейта : Постоянный
Битрейт : 64,0 Кбит/сек
Каналы : 1 канал
Channel layout : C
Частота : 44,1 КГц
Частота кадров : 21,533 кадра/сек (2048 SPF)
Метод сжатия : С потерями
Размер потока : 777 Кбайт (37%)
Default : Да
AlternateGroup/String : 1
Общее
Полное имя : .\01 Сложные компоненты, директивы, пайпы.mp4
Формат : MPEG-4
Профиль формата : Base Media / Version 2
Идентификатор кодека : mp42 (mp42/isom)
Размер файла : 458 Мбайт
Продолжительность : 1 ч. 26 м.
Режим общего битрейта : Переменный
Общий поток : 741 Кбит/сек
Дата кодирования : UTC 2018-10-19 19:15:29
Дата пометки : UTC 2018-10-19 19:15:39
Видео
Идентификатор : 1
Формат : AVC
Формат/Информация : Advanced Video Codec
Профиль формата : High@L4
Настройки формата : 1 Ref Frames
Параметр CABAC формата : Нет
Параметр RefFrames формата : 1 кадр
Идентификатор кодека : avc1
Идентификатор кодека/Информация : Advanced Video Coding
Продолжительность : 1 ч. 26 м.
Битрейт : 594 Кбит/сек
Ширина : 1664 пикселя
Высота : 984 пикселя
Соотношение сторон : 5:3
Режим частоты кадров : Переменный
Частота кадров : 29,125 кадров/сек
Минимальная частота кадров : 10,000 кадров/сек
Максимальная частота кадров : 30,010 кадров/сек
Частота кадров в оригинале : 30,000 кадров/сек
Цветовое пространство : YUV
Субдискретизация насыщенности : 4:2:0
Битовая глубина : 8 бит
Тип развёртки : Прогрессивная
Бит/(Пиксели*Кадры) : 0.012
Размер потока : 367 Мбайт (80%)
Дата кодирования : UTC 2018-10-19 19:15:29
Дата пометки : UTC 2018-10-19 19:15:39
Цветовой диапазон : Limited
Codec configuration box : avcC
Аудио
Идентификатор : 2
Формат : AAC LC
Формат/Информация : Advanced Audio Codec Low Complexity
Идентификатор кодека : mp4a-40-2
Продолжительность : 1 ч. 26 м.
Продолжительность оригинала : 1 ч. 26 м.
Вид битрейта : Переменный
Битрейт : 144 Кбит/сек
Каналы : 2 канала
Channel layout : L R
Частота : 44,1 КГц
Частота кадров : 43,066 кадра/сек (1024 SPF)
Метод сжатия : С потерями
Размер потока : 88,8 Мбайт (19%)
Размер потока оригинала : 88,8 Мбайт (19%)
Заголовок : Stereo
Дата кодирования : UTC 2018-10-19 19:15:29
Дата пометки : UTC 2018-10-19 19:15:39
Общее
Полное имя : .\02 Dependency injection в деталях.mp4
Формат : MPEG-4
Профиль формата : Base Media / Version 2
Идентификатор кодека : mp42 (mp42/isom)
Размер файла : 432 Мбайт
Продолжительность : 1 ч. 28 м.
Режим общего битрейта : Переменный
Общий поток : 680 Кбит/сек
Дата кодирования : UTC 2018-10-19 19:18:43
Дата пометки : UTC 2018-10-19 19:18:47
Видео
Идентификатор : 1
Формат : AVC
Формат/Информация : Advanced Video Codec
Профиль формата : High@L4
Настройки формата : 1 Ref Frames
Параметр CABAC формата : Нет
Параметр RefFrames формата : 1 кадр
Идентификатор кодека : avc1
Идентификатор кодека/Информация : Advanced Video Coding
Продолжительность : 1 ч. 28 м.
Битрейт : 532 Кбит/сек
Ширина : 1664 пикселя
Высота : 1032 пикселя
Соотношение сторон : 16:10
Режим частоты кадров : Переменный
Частота кадров : 28,679 кадров/сек
Минимальная частота кадров : 4,286 кадра/сек
Максимальная частота кадров : 30,000 кадров/сек
Частота кадров в оригинале : 30,000 кадров/сек
Цветовое пространство : YUV
Субдискретизация насыщенности : 4:2:0
Битовая глубина : 8 бит
Тип развёртки : Прогрессивная
Бит/(Пиксели*Кадры) : 0.011
Размер потока : 338 Мбайт (78%)
Дата кодирования : UTC 2018-10-19 19:18:43
Дата пометки : UTC 2018-10-19 19:18:47
Цветовой диапазон : Limited
Codec configuration box : avcC
Аудио
Идентификатор : 2
Формат : AAC LC
Формат/Информация : Advanced Audio Codec Low Complexity
Идентификатор кодека : mp4a-40-2
Продолжительность : 1 ч. 28 м.
Вид битрейта : Переменный
Битрейт : 144 Кбит/сек
Каналы : 2 канала
Channel layout : L R
Частота : 44,1 КГц
Частота кадров : 43,066 кадра/сек (1024 SPF)
Метод сжатия : С потерями
Размер потока : 92,2 Мбайт (21%)
Заголовок : Stereo
Дата кодирования : UTC 2018-10-19 19:18:43
Дата пометки : UTC 2018-10-19 19:18:47

Дополнительная информация:

В раздаче имеются архивы! В них содержится дополнительные материалы.
Скриншоты:
Скачать .torrent

Для того, чтобы скачать торрент-файл

javascript.ru - Продвинутый курс по Angular (2018)

с нашего сайта, Вам необходимо Войти на сайт под своим логином! Если у Вас ещё нет логина, тогда Вам нужно сначала Зарегистрироваться!

Как скачивать? · Что такое торрент? · Рейтинг и ограничения

Показать сообщения:    
Ответить на тему

javascript.ru - Продвинутый курс по Angular (2018) скачать торрент (torrent), видеоуроки, тренинги, обучающее видео и видеокурсы

Текущее время: Сегодня 11:38

Часовой пояс: GMT + 4



Вы не можете начинать темы
Вы не можете отвечать на сообщения
Вы не можете редактировать свои сообщения
Вы не можете удалять свои сообщения
Вы не можете голосовать в опросах
Вы не можете прикреплять файлы к сообщениям
Вы не можете скачивать файлы