Digital-Tutors - UV Mapping Workflows in Blender (2015)

Ответить на тему
 
Автор Сообщение

Yulya ®

Digital-Tutors | UV Mapping Workflows in Blender (2015) PCRec [H.264/720p-LQ] [RU/EN] - Автор (режиссер): Justin Marshall
Производство: Digital-Tutors
Жанр: 3D графика
Описание:
Создание UVs в Blender
В этом обучающем курсе по Blender мы узнаем о различных инструментах для UV-развёрток и поговорим о том, как максимально полезно их использовать.
Продолжительность: 00:43:32
Качество видео: PCRec
Перевод: Дублированный (Patient Zero)
Язык озвучки: Русский, Английский
Видео: AVC/H.264, 1280x720, ~480-910 Kbps
Аудио 1: AAC, 1 ch, 160 Kbps - Русский, дублированный (Patient Zero)
Аудио 2: AAC, 1 ch, 55 Kbps - Английский, оригинал

Mediainfo:

General
Complete name : 01. Introduction and Project Overview.mp4
Format : MPEG-4
Format profile : Base Media
Codec ID : isom
File size : 7.82 MiB
Duration : 58s 496ms
Overall bit rate : 1 121 Kbps
Video
ID : 1
Format : AVC
Format/Info : Advanced Video Codec
Format profile : High@L3.1
Format settings, CABAC : Yes
Format settings, ReFrames : 4 frames
Codec ID : avc1
Codec ID/Info : Advanced Video Coding
Duration : 58s 200ms
Bit rate : 904 Kbps
Width : 1 280 pixels
Height : 720 pixels
Display aspect ratio : 16:9
Frame rate mode : Variable
Frame rate : 15.000 fps
Minimum frame rate : 14.925 fps
Maximum frame rate : 15.152 fps
Color space : YUV
Chroma subsampling : 4:2:0
Bit depth : 8 bits
Scan type : Progressive
Bits/(Pixel*Frame) : 0.065
Stream size : 6.26 MiB (80%)
Writing library : x264 core 118 r2085 8a62835
Language : English
Audio #1
ID : 2
Format : AAC
Format/Info : Advanced Audio Codec
Format profile : LC
Codec ID : 40
Duration : 58s 203ms
Duration_LastFrame : 36ms
Bit rate mode : Constant
Bit rate : 160 Kbps
Channel(s) : 2 channels
Channel(s)_Original : 1 channel
Channel positions : Front: C
Sampling rate : 44.1 KHz
Compression mode : Lossy
Stream size : 1.11 MiB (14%)
Language : Russian
Audio #2
ID : 3
Format : AAC
Format/Info : Advanced Audio Codec
Format profile : LC
Codec ID : 40
Duration : 58s 496ms
Bit rate mode : Constant
Bit rate : 54.9 Kbps
Channel(s) : 2 channels
Channel(s)_Original : 1 channel
Channel positions : Front: C
Sampling rate : 32.0 KHz
Compression mode : Lossy
Stream size : 392 KiB (5%)
Language : English

Дополнительная информация:

UV и UV-развёртка - важные элементы создания текстур для 3D моделей. UV-информация служит мостом между 3D объектами, которые мы создаём, и 2D текстурами, которые мы накладываем перед рендерингом. UV позволяют нам сообщить Blender, каким образом наложить текстуры на поверхность. Поэтому хорошая UV-развёртка может значительно ускорить процесс создания текстур, облегчая их редактирование в дальнейшей работе.
Сначала мы рассмотрим основные понятия UV, а затем перейдём к изучению различных способов создания UV-проекций. Также мы поговорим о редактировании UV и применении составных проекций. Мы затронем вопрос об экспорте файлов развёртки, чтобы упростить процесс текстурирования. В конце этого курса вы будете лучше понимать назначение UV и получите необходимые знания для создания и изменения собственных UV-развёрток.
Файлы упражнений прилагаются к курсу.
Дополнительная информация на офсайте.
Как выбрать звуковую дорожку по умолчанию (ссылка).
Скриншоты:

Дополнительные скриншоты:

Скачать .torrent

Для того, чтобы скачать торрент-файл

Digital-Tutors - UV Mapping Workflows in Blender (2015)

с нашего сайта, Вам необходимо Войти на сайт под своим логином! Если у Вас ещё нет логина, тогда Вам нужно сначала Зарегистрироваться!

Как скачивать? · Что такое торрент? · Рейтинг и ограничения

Показать сообщения:    
Ответить на тему

Digital-Tutors - UV Mapping Workflows in Blender (2015) скачать торрент (torrent), видеоуроки, тренинги, обучающее видео и видеокурсы

Текущее время: Сегодня 22:48

Часовой пояс: GMT + 4



Вы не можете начинать темы
Вы не можете отвечать на сообщения
Вы не можете редактировать свои сообщения
Вы не можете удалять свои сообщения
Вы не можете голосовать в опросах
Вы не можете прикреплять файлы к сообщениям
Вы не можете скачивать файлы