FXPHD.com - NUKE Tips and Tricks (2016)

Ответить на тему
 
Автор Сообщение

Yulya ®

FXPHD.com | NUKE Tips and Tricks (2016) PCRec [H.264/1080p-LQ] [RU/EN] - Автор (режиссер): Hugo Léveillé
Производство: FXPHD.com
Жанр: Работа с видео
Описание:
NUKE: Приёмы и Хитрости. Части 1 - 3.
Продолжительность: 07:33:39
Качество видео: PCRec
Перевод: Дублированный (Nemecic)
Язык озвучки: Русский, Английский
Видео: AVC/H.264, 1920x1080, ~197-1026 Kbps
Аудио 1: AAC, 1 ch, 160 Kbps - Русский, дублированный (Nemecic)
Аудио 2: AAC, 2 ch, 139-159 Kbps - Английский, оригинал

Mediainfo:

General
Complete name : NUK 242 - class 01.mp4
Format : MPEG-4
Format profile : Base Media
Codec ID : isom
File size : 138 MiB
Duration : 14mn 15s
Overall bit rate : 1 354 Kbps
Video
ID : 1
Format : AVC
Format/Info : Advanced Video Codec
Format profile : Main@L3.1
Format settings, CABAC : Yes
Format settings, ReFrames : 4 frames
Codec ID : avc1
Codec ID/Info : Advanced Video Coding
Duration : 14mn 15s
Bit rate : 1 026 Kbps
Width : 1 920 pixels
Height : 1 080 pixels
Display aspect ratio : 16:9
Frame rate mode : Constant
Frame rate : 30.000 fps
Color space : YUV
Chroma subsampling : 4:2:0
Bit depth : 8 bits
Scan type : Progressive
Bits/(Pixel*Frame) : 0.016
Stream size : 105 MiB (76%)
Writing library : x264 core 142 r2479 dd79a61
Color primaries : BT.709
Transfer characteristics : BT.709
Matrix coefficients : BT.709
Language : English
Audio #1
ID : 2
Format : AAC
Format/Info : Advanced Audio Codec
Format profile : LC
Codec ID : 40
Duration : 14mn 15s
Duration_LastFrame : 40ms
Bit rate mode : Constant
Bit rate : 160 Kbps
Channel(s) : 2 channels
Channel(s)_Original : 1 channel
Channel positions : Front: C
Sampling rate : 44.1 KHz
Compression mode : Lossy
Stream size : 16.3 MiB (12%)
Language : Russian
Audio #2
ID : 3
Format : AAC
Format/Info : Advanced Audio Codec
Format profile : LC
Codec ID : 40
Duration : 14mn 15s
Bit rate mode : Constant
Bit rate : 159 Kbps
Channel(s) : 2 channels
Channel positions : Front: L R
Sampling rate : 48.0 KHz
Compression mode : Lossy
Stream size : 16.2 MiB (12%)
Language : English

Продолжение описания:

В серии учебных курсов "NUKE: Приёмы и Хитрости", состоящей из трёх частей, Хьюго Левели показывает полезные приёмы, используемые в продакшене, которые вы можете применить в своих проектах.
Эти советы, начиная от небольших - не более пяти минут, и заканчивая продолжительностью более часа, направлены на то, чтобы помочь вам в вашей повседневной работе. Мы полагаем, что это будут невероятно популярные серии уроков, которые помогут вам поднять ваши навыки на следующий уровень.
Об авторе:
Хьюго Левели в настоящее время возглавляет направление композитинга в студии Mels в Монреале. Более чем с 10-летним опытом в создании визуальных эффектов, он так же разрабатывает и внедряет новые инструменты в пайплайн для NUKE.
Файлы упражнений прилагаются к курсу.
Дополнительная информация на официальном сайте (часть 1, часть 2, часть 3).
Как выбрать звуковую дорожку по умолчанию (ссылка).

Дополнительная информация:

Тем, кто уже скачал Английскую версию, состоящую из трёх частей:
NUK238 NUKE Tips and Tricks, Volume 1
NUK239 NUKE Tips and Tricks, Volume 2
FXPHD - NUK242 NUKE Tips and Tricks, Volume 3
нет необходимости скачивать файлы примеров ещё раз, если хотите съэкономить трафик и время.
1. Создайте пустую корневую папку, например такую -
FXPHD.com - NUKE Tips and Tricks (2016 RUS ENG)
2. Внутри неё создайте три пустые папки:
Project_Files_1
Project_Files_2
Project_Files_3
и перенесите (скопируйте) в эти папки файлы примеров из соответствующих частей Английской версии.
3. Откройте торрент, укажите для скачивания корневую папку (из пункта 1). После проверки торрент-клиент докачает только файлы с видео.
Скриншоты:

Дополнительные скриншоты:


Скачать .torrent

Для того, чтобы скачать торрент-файл

FXPHD.com - NUKE Tips and Tricks (2016)

с нашего сайта, Вам необходимо Войти на сайт под своим логином! Если у Вас ещё нет логина, тогда Вам нужно сначала Зарегистрироваться!

Как скачивать? · Что такое торрент? · Рейтинг и ограничения

Показать сообщения:    
Ответить на тему

FXPHD.com - NUKE Tips and Tricks (2016) скачать торрент (torrent), видеоуроки, тренинги, обучающее видео и видеокурсы

Текущее время: Сегодня 00:38

Часовой пояс: GMT + 4



Вы не можете начинать темы
Вы не можете отвечать на сообщения
Вы не можете редактировать свои сообщения
Вы не можете удалять свои сообщения
Вы не можете голосовать в опросах
Вы не можете прикреплять файлы к сообщениям
Вы не можете скачивать файлы