Dartware - Многопоточность в C++ (2018)

Ответить на тему
 
Автор Сообщение

Yulya ®

Dartware | Многопоточность в C++ (2018) PCRec [H.264/720p-LQ]- Автор (режиссер): Dartware
Жанр: Программирование
Описание:
Мы вступили в эру параллельных и гетерогенных вычислений. Поэтому для современного программиста уметь писать многопоточные программы настолько же важно, насколько граммотно применять паттерны проектирования или оптимизировать код. Курс последовательно введет зрителя в проблематику многопоточности и параллелизма. В качестве языка программирования в курсе используется C++.
Продолжительность: 02:06:50
Качество видео: PCRec
Видео: AVC/H.264, 1280x720, ~1 283 Kbps
Аудио: AAC, 2 ch, 317 Kbps

Mediainfo:

General
Complete name : E:\Learning\C++\Dartware\Concurrency\1. Введение.mp4
Format : MPEG-4
Format profile : Base Media / Version 2
Codec ID : mp42 (mp42/mp41)
File size : 125 MiB
Duration : 10mn 55s
Overall bit rate mode : Variable
Overall bit rate : 1 606 Kbps
Encoded date : UTC 2018-10-28 23:29:10
Tagged date : UTC 2018-10-28 23:29:13
©TIM : 00;00;00;00
©TSC : 30000
©TSZ : 1001
Video
ID : 1
Format : AVC
Format/Info : Advanced Video Codec
Format profile : High@L4.2
Format settings, CABAC : Yes
Format settings, ReFrames : 3 frames
Format settings, GOP : M=3, N=29
Codec ID : avc1
Codec ID/Info : Advanced Video Coding
Duration : 10mn 55s
Bit rate mode : Variable
Bit rate : 1 283 Kbps
Maximum bit rate : 16.0 Mbps
Width : 1 280 pixels
Height : 720 pixels
Display aspect ratio : 16:9
Frame rate mode : Constant
Frame rate : 29.970 (30000/1001) fps
Standard : NTSC
Color space : YUV
Chroma subsampling : 4:2:0
Bit depth : 8 bits
Scan type : Progressive
Bits/(Pixel*Frame) : 0.046
Stream size : 100 MiB (80%)
Language : English
Encoded date : UTC 2018-10-28 23:29:10
Tagged date : UTC 2018-10-28 23:29:10
Color range : Limited
Color primaries : BT.709
Transfer characteristics : BT.709
Matrix coefficients : BT.709
Audio
ID : 2
Format : AAC
Format/Info : Advanced Audio Codec
Format profile : LC
Codec ID : 40
Duration : 10mn 55s
Source duration : 10mn 55s
Bit rate mode : Variable
Bit rate : 317 Kbps
Maximum bit rate : 321 Kbps
Channel(s) : 2 channels
Channel positions : Front: L R
Sampling rate : 48.0 KHz
Frame rate : 46.875 fps (1024 spf)
Compression mode : Lossy
Stream size : 24.8 MiB (20%)
Source stream size : 24.8 MiB (20%)
Language : English
Encoded date : UTC 2018-10-28 23:29:10
Tagged date : UTC 2018-10-28 23:29:10

Содержание курса

- Введение
- Класс thread
- Защита разделяемых ресурсов
- Условные переменные
- Будущие результаты
Скриншоты:
Скачать .torrent

Для того, чтобы скачать торрент-файл

Dartware - Многопоточность в C++ (2018)

с нашего сайта, Вам необходимо Войти на сайт под своим логином! Если у Вас ещё нет логина, тогда Вам нужно сначала Зарегистрироваться!

Как скачивать? · Что такое торрент? · Рейтинг и ограничения

Показать сообщения:    
Ответить на тему

Dartware - Многопоточность в C++ (2018) скачать торрент (torrent), видеоуроки, тренинги, обучающее видео и видеокурсы

Текущее время: Сегодня 12:17

Часовой пояс: GMT + 4



Вы не можете начинать темы
Вы не можете отвечать на сообщения
Вы не можете редактировать свои сообщения
Вы не можете удалять свои сообщения
Вы не можете голосовать в опросах
Вы не можете прикреплять файлы к сообщениям
Вы не можете скачивать файлы