Hamaha - Тренинг "Готовимся к кризису" (2018)

Ответить на тему
 
Автор Сообщение

Yulya ®

Hamaha | Тренинг "Готовимся к кризису" (2018) WEBRip [H.264/720p-LQ]- Автор (режиссер): Hamaha
Жанр: Бизнес, Трейдинг
Описание:
Как подготовиться к надвигающемуся кризису и что делать, когда он придет? Как построить торговый процесс?Как выработать правильные торговые привычки? Как торговать и как читать рынок? Как работать с рисками?
– ответы на эти вопросы даст вам наш тренинг.
Продолжительность: 00:27:27
Качество видео: WEBRip
Видео: AVC/H.264, 1280x686, ~445 Kbps
Аудио: AAC, 2 ch, 128 kbps

Mediainfo:

General
Format : MPEG-4
Format profile : Base Media / Version 2
Codec ID : mp42
File size : 88.2 MiB
Duration : 27mn 27s
Overall bit rate mode : Variable
Overall bit rate : 449 Kbps
Encoded date : UTC 2018-10-26 07:43:22
Tagged date : UTC 2018-10-26 07:43:22
gsst : 0
gstd : 1647362
Video
ID : 1
Format : AVC
Format/Info : Advanced Video Codec
Format profile : Main@L3.1
Format settings, CABAC : Yes
Format settings, ReFrames : 3 frames
Codec ID : avc1
Codec ID/Info : Advanced Video Coding
Duration : 27mn 27s
Bit rate mode : Variable
Bit rate : 318 Kbps
Width : 1 280 pixels
Height : 686 pixels
Display aspect ratio : 1.85:1
Frame rate mode : Constant
Frame rate : 25.000 fps
Color space : YUV
Chroma subsampling : 4:2:0
Bit depth : 8 bits
Scan type : Progressive
Bits/(Pixel*Frame) : 0.014
Stream size : 62.4 MiB (71%)
Title : ISO Media file produced by Google Inc. Created on: 10/26/2018.
Encoded date : UTC 2018-10-26 07:43:22
Tagged date : UTC 2018-10-26 07:43:22
Color primaries : BT.709-5, BT.1361, IEC 61966-2-4, SMPTE RP177
Transfer characteristics : BT.709-5, BT.1361
Matrix coefficients : BT.601-6 525, BT.1358 525, BT.1700 NTSC, SMPTE 170M
Audio
ID : 2
Format : AAC
Format/Info : Advanced Audio Codec
Format profile : LC
Codec ID : 40
Duration : 27mn 27s
Bit rate mode : Variable
Bit rate : 128 Kbps
Channel(s) : 2 channels
Channel positions : Front: L R
Sampling rate : 44.1 KHz
Compression mode : Lossy
Delay relative to video : -40ms
Stream size : 25.1 MiB (28%)
Title : ISO Media file produced by Google Inc. Created on: 10/26/2018.
Language : English
Encoded date : UTC 2018-10-26 07:43:22
Tagged date : UTC 2018-10-26 07:43:22

Дополнительная информация:

Для кого тренинг:
Особенно для трейдеров с опытом, но и начинающим также будет понятно.
Перед тем как описать этот тренинг, начнем с причин, почему на него стоит записаться сейчас. Название “Готовимся к кризису” выбрали не просто так.
Мы действительно готовимся к кризису и рекомендуем вам начать готовиться к нему уже сегодня.
Когда на рынке кризис – образуется поле возможностей. Рынок легкий и понятный. Новички вообще на нем сразу начинают грести если не лопатой, то лопаткой.
Если у вас есть опыт и ранее не было значимого результата, то на кризисном рынке его просто не может не быть. Во время паники движения предсказуемы и однонаправленны. Да что нам вам рассказывать, вы наверняка уже много раз смотрели истории на ютубе, как зеленые студенты в 2008 году, за пару месяцев нарубили на квартиры и машины. Студенты не были гениями, они просто были в нужное время в нужном месте.
Скриншоты:
Скачать .torrent

Для того, чтобы скачать торрент-файл

Hamaha - Тренинг "Готовимся к кризису" (2018)

с нашего сайта, Вам необходимо Войти на сайт под своим логином! Если у Вас ещё нет логина, тогда Вам нужно сначала Зарегистрироваться!

Как скачивать? · Что такое торрент? · Рейтинг и ограничения

Показать сообщения:    
Ответить на тему

Hamaha - Тренинг "Готовимся к кризису" (2018) скачать торрент (torrent), видеоуроки, тренинги, обучающее видео и видеокурсы

Текущее время: Сегодня 03:54

Часовой пояс: GMT + 4



Вы не можете начинать темы
Вы не можете отвечать на сообщения
Вы не можете редактировать свои сообщения
Вы не можете удалять свои сообщения
Вы не можете голосовать в опросах
Вы не можете прикреплять файлы к сообщениям
Вы не можете скачивать файлы