Digital-Tutors - Quick Start to NUKE (2014)

Ответить на тему
 
Автор Сообщение

Yulya ®

Digital-Tutors | Quick Start to NUKE (2014) PCRec [H.264/720p-LQ] [RU/EN] - Автор (режиссер): Laura Smith
Производство: Digital-Tutors
Жанр: Работа с видео
Описание:
Быстрый старт в NUKE
Если хотите изучить NUKE и вы являетесь новичком или вам необходимо улучшить свои знания по работе в программе NUKE, то серия учебных курсов "Быстрый Старт в NUKE" является наилучшим способом быстро получить необходимые знания и начать создавать свои замечательные композиции.
Продолжительность: 07:45:02
Качество видео: PCRec
Перевод: Дублированный (Marusya, Nemecic)
Язык озвучки: Русский, Английский
Видео: AVC/H.264, 1280x720, ~81-718 Kbps
Аудио 1: MP3, 2 ch, 128 Kbps - Русский, дублированный (Marusya, Nemecic)
Аудио 2: AAC, 2 ch, 96 Kbps - Английский, оригинал

Mediainfo:

General
Complete name : 3_01. Introduction and Project Overview.mp4
Format : MPEG-4
Format profile : Base Media
Codec ID : isom
File size : 11.1 MiB
Duration : 1mn 47s
Overall bit rate : 865 Kbps
Video
ID : 1
Format : AVC
Format/Info : Advanced Video Codec
Format profile : High@L3.1
Format settings, CABAC : Yes
Format settings, ReFrames : 4 frames
Codec ID : avc1
Codec ID/Info : Advanced Video Coding
Duration : 1mn 47s
Bit rate : 630 Kbps
Width : 1 280 pixels
Height : 720 pixels
Display aspect ratio : 16:9
Frame rate mode : Constant
Frame rate : 15.000 fps
Color space : YUV
Chroma subsampling : 4:2:0
Bit depth : 8 bits
Scan type : Progressive
Bits/(Pixel*Frame) : 0.046
Stream size : 8.14 MiB (73%)
Writing library : x264 core 129 r2245 bc13772
Language : English
Audio #1
ID : 2
Format : MPEG Audio
Format version : Version 1
Format profile : Layer 3
Mode : Joint stereo
Mode extension : MS Stereo
Codec ID : 6B
Duration : 1mn 47s
Bit rate mode : Constant
Bit rate : 128 Kbps
Channel(s) : 2 channels
Sampling rate : 48.0 KHz
Compression mode : Lossy
Stream size : 1.64 MiB (15%)
Language : Russian
Audio #2
ID : 3
Format : AAC
Format/Info : Advanced Audio Codec
Format profile : LC
Codec ID : 40
Duration : 1mn 47s
Duration_LastFrame : -9ms
Bit rate mode : Constant
Bit rate : 96.0 Kbps
Channel(s) : 2 channels
Channel positions : Front: L R
Sampling rate : 44.1 KHz
Compression mode : Lossy
Stream size : 1.23 MiB (11%)
Language : English

Дополнительная информация:

Этот учебный курс спроектирован в определённой последовательности, поэтому мы по-настоящему рекомендуем изучать следующую часть после того, как просмотрите предыдущую. Мы также советуем после каждой части выполнять все домашние задания, которые позволят закрепить полученные знания.
Быстрый старт в NUKE: Часть 1
В первой части курса мы рассмотрим основы работы в программе композитинга NUKE.
Мы обсудим инструменты навигации, а также интерфейс программы. Мы изучим методы работы с нодом (узлом) READ для чтения файлов, композитинг всех изображений при помощи ноды MERGE (объединение нодов). Мы также рассмотрим как работать с альфа-каналом (RGBA).
Мы также объясним как работать с нодами, которые отвечают за цвето-коррекцию, рассмотрим в каких случаях их использовать. Затем мы исследуем, как при помощи некоторых других нодов после больших объёмов работы идеально завершить нашу композиции.
Быстрый старт в NUKE: Часть 2
В этой части мы будем опираться на знания, полученные в предыдущей первой части.
Мы сначала загрузим все нужные нам изображения, установим основные настройки нашего проекта и будем передвигать все изображения так, как нам нужно внутри нашего проекта.
Мы рассмотрим основные приёмы трекинга тех изображений, которые будут находиться в кадре. Мы изучим как использовать такие элементы, как огонь и взрыв, а также эффекты - искажение изображения от огня и солнечные блики.
Мы также рассмотрим технику цвето-коррекции, которую мы уже начали рассматривать в первой части, но в этой части мы перейдём на уровень выше. Мы закончим наш проект, создав полноценную сцену (ролик) в программе NUKE.
Быстрый старт в NUKE: Часть 3
Добро пожаловать в третью часть "Быстрого Старта в NUKE", серию специально спроектированных курсов в определённой последовательности и наполненных ценными упражнениями, которые закрепят все полученные знания.
В этой части мы сфокусируемся на применении фотографических текстур в 3D геометрии прямо внутри программы NUKE.
Мы рассмотрим все нюансы использования 3D системы в NUKE и изучим, как трансформировать простые фотографии в полноценное 3D окружение. Мы также изучим как правильно использовать сцены, снятые на хромокее (зелёном экране).
Мы также закрепим знания, полученные из предыдущей части, такие как ротоскопинг и правильная структурная организация нодов - для быстрой и эффективной работы. И закончим курс изучением более сложной цвето-корекции, чтобы успешно завершить наш проект.
Файлы упражнений прилагаются к курсу.
Дополнительная информация на официальном сайте (часть 1, часть 2, часть 3).
Как выбрать звуковую дорожку по умолчанию (ссылка).
Скриншоты:

Дополнительные скриншоты:


Скачать .torrent

Для того, чтобы скачать торрент-файл

Digital-Tutors - Quick Start to NUKE (2014)

с нашего сайта, Вам необходимо Войти на сайт под своим логином! Если у Вас ещё нет логина, тогда Вам нужно сначала Зарегистрироваться!

Как скачивать? · Что такое торрент? · Рейтинг и ограничения

Показать сообщения:    
Ответить на тему

Digital-Tutors - Quick Start to NUKE (2014) скачать торрент (torrent), видеоуроки, тренинги, обучающее видео и видеокурсы

Текущее время: Сегодня 00:09

Часовой пояс: GMT + 4



Вы не можете начинать темы
Вы не можете отвечать на сообщения
Вы не можете редактировать свои сообщения
Вы не можете удалять свои сообщения
Вы не можете голосовать в опросах
Вы не можете прикреплять файлы к сообщениям
Вы не можете скачивать файлы