Учебный центр 1C - Программирование на JAVA для школьников (2016)

Ответить на тему
 
Автор Сообщение

Yulya ®

Учебный центр 1C | Программирование на JAVA для школьников (2016) PCRec [H.264]- Автор (режиссер): Учебный центр 1C
Жанр: Программирование
Описание:
В курсе кратко рассматриваются языки программирования, от языков низкого уровня до языков высокого уровня.
Даётся описание языка JAVA, от его происхождения до областей его применения.
Объясняется где скачать и как установить пакет разработчика Java, а так же среду разработки Eclipse.
Целью курса является рассмотрение основных операторов языка и последующее создание игры.
Основной методический подход в обучении на данном курсе состоит в самостоятельном выполнении обучаемыми демонстрируемых примеров под руководством опытного преподавателя центра обучения 1С.
Продолжительность: 11:26:58
Качество видео: PCRec
Видео: AVC/H.264, 1024x768, ~729 Kbps
Аудио: AAC, 2 ch, 126 Kbps

Mediainfo:

Общее
Полное имя : 1.mp4
Формат : MPEG-4
Профиль формата : Base Media / Version 2
Идентификатор кодека : mp42 (isom/mp42)
Размер файла : 443 Мбайт
Продолжительность : 1 ч. 12 м.
Режим общего битрейта : Переменный
Общий поток : 857 Кбит/сек
Дата кодирования : UTC 2015-12-11 09:44:24
Дата пометки : UTC 2015-12-11 09:44:24
Видео
Идентификатор : 1
Формат : AVC
Формат/Информация : Advanced Video Codec
Профиль формата : Baseline@L3.1
Настройки формата : 3 Ref Frames
Параметр CABAC формата : Нет
Параметр RefFrames формата : 3 кадра
Параметр GOP формата : M=1, N=75
Идентификатор кодека : avc1
Идентификатор кодека/Информация : Advanced Video Coding
Продолжительность : 1 ч. 12 м.
Продолжительность оригинала : 1 ч. 12 м.
Битрейт : 729 Кбит/сек
Ширина : 1024 пикселя
Высота : 768 пикселей
Соотношение сторон : 4:3
Режим частоты кадров : Переменный
Частота кадров : 15,000 кадров/сек
Минимальная частота кадров : 15,000 кадров/сек
Максимальная частота кадров : 15,008 кадров/сек
Цветовое пространство : YUV
Субдискретизация насыщенности : 4:2:0
Битовая глубина : 8 бит
Тип развёртки : Прогрессивная
Бит/(Пиксели*Кадры) : 0.062
Размер потока : 377 Мбайт (85%)
Размер потока оригинала : 377 Мбайт (85%)
Язык : English
Дата кодирования : UTC 2015-12-11 09:44:25
Дата пометки : UTC 2015-12-11 09:44:25
Цветовой диапазон : Limited
mdhd_Duration : 4334000
Codec configuration box : avcC
Аудио
Идентификатор : 2
Формат : AAC LC
Формат/Информация : Advanced Audio Codec Low Complexity
Идентификатор кодека : mp4a-40-2
Продолжительность : 1 ч. 12 м.
Продолжительность оригинала : 1 ч. 12 м.
Вид битрейта : Переменный
Битрейт : 126 Кбит/сек
Максимальный битрейт : 160 Кбит/сек
Каналы : 2 канала
Channel layout : L R
Частота : 44,1 КГц
Частота кадров : 43,066 кадра/сек (1024 SPF)
Метод сжатия : С потерями
Размер потока : 64,9 Мбайт (15%)
Размер потока оригинала : 64,9 Мбайт (15%)
Язык : English
Дата кодирования : UTC 2015-12-11 09:44:25
Дата пометки : UTC 2015-12-11 09:44:25
mdhd_Duration : 4334028
Скриншоты:

Дополнительные скриншоты:


Скачать .torrent

Для того, чтобы скачать торрент-файл

Учебный центр 1C - Программирование на JAVA для школьников (2016)

с нашего сайта, Вам необходимо Войти на сайт под своим логином! Если у Вас ещё нет логина, тогда Вам нужно сначала Зарегистрироваться!

Как скачивать? · Что такое торрент? · Рейтинг и ограничения

Показать сообщения:    
Ответить на тему

Учебный центр 1C - Программирование на JAVA для школьников (2016) скачать торрент (torrent), видеоуроки, тренинги, обучающее видео и видеокурсы

Текущее время: Сегодня 14:17

Часовой пояс: GMT + 4



Вы не можете начинать темы
Вы не можете отвечать на сообщения
Вы не можете редактировать свои сообщения
Вы не можете удалять свои сообщения
Вы не можете голосовать в опросах
Вы не можете прикреплять файлы к сообщениям
Вы не можете скачивать файлы