Константин Тимофеев - Видеокурс «Моделирование и визуализация ванной комнаты в 3ds Max» (2017)

Ответить на тему
 
Автор Сообщение

Yulya ®

Константин Тимофеев | Видеокурс «Моделирование и визуализация ванной комнаты в 3ds Max» (2017) PCRec [H.264/1080p-LQ]- Автор (режиссер): Константин Тимофеев
Производство: Виртуальная школа Графикана
Жанр: Обучающее видео
Описание:
Уникальный авторский видеокурс-практикум, демонстрирующий весь процесс моделирования и реалистичной визуализации в 3ds Max интерьера ванной комнаты.
Видеокурс предназначен для широкого круга слушателей, увлекающихся дизайном, 3d моделированием и визуализацией интерьеров, а также для всех творческих личностей, желающих обновить дизайн своей квартиры, загородного дома и т.д.
Материал видеокурса будет одинаково интересен, как новичкам и любителям, не имеющим какого-либо опыта в визуализации интерьеров, так и профессионалам, работающим в данной сфере большое количество времени.
Продолжительность: 06:54:00
Качество видео: PCRec
Видео: AVC/H.264, 1920х1080, ~1581 Kbps
Аудио: AAC, 2 ch, 128 Kbps

Mediainfo:

Общее
Полное имя : I:\УРОКИ ПО 3ДМАКСУ\Ванная\Моделирование и визуализация ванной комнаты в 3ds Max\02.mp4
Формат : MPEG-4
Профиль формата : Base Media / Version 2
Идентификатор кодека : mp42 (isom/mp42)
Размер файла : 589 Мбайт
Продолжительность : 48 м. 7 с.
Режим общего битрейта : Переменный
Общий поток : 1710 Кбит/сек
Дата кодирования : UTC 2018-07-24 14:19:27
Дата пометки : UTC 2018-07-24 14:19:27
gsst : 0
gstd : 2888026
Видео
Идентификатор : 1
Формат : AVC
Формат/Информация : Advanced Video Codec
Профиль формата : High@L4
Настройки формата : CABAC / 1 Ref Frames
Параметр CABAC формата : Да
Параметр RefFrames формата : 1 кадр
Параметр GOP формата : M=1, N=50
Идентификатор кодека : avc1
Идентификатор кодека/Информация : Advanced Video Coding
Продолжительность : 48 м. 7 с.
Битрейт : 1580 Кбит/сек
Максимальный битрейт : 21,8 Мбит/сек
Ширина : 1920 пикселей
Высота : 1080 пикселей
Соотношение сторон : 16:9
Режим частоты кадров : Постоянный
Частота кадров : 25,000 кадров/сек
Цветовое пространство : YUV
Субдискретизация насыщенности : 4:2:0
Битовая глубина : 8 бит
Тип развёртки : Прогрессивная
Бит/(Пиксели*Кадры) : 0.030
Размер потока : 544 Мбайт (92%)
Дата пометки : UTC 2018-07-24 14:20:03
Цветовой диапазон : Limited
Основные цвета : BT.709
Характеристики трансфера : BT.709
Коэффициенты матрицы : BT.709
Codec configuration box : avcC
Аудио
Идентификатор : 2
Формат : AAC LC
Формат/Информация : Advanced Audio Codec Low Complexity
Идентификатор кодека : mp4a-40-2
Продолжительность : 48 м. 7 с.
Вид битрейта : Переменный
Битрейт : 128 Кбит/сек
Максимальный битрейт : 138 Кбит/сек
Каналы : 2 канала
Channel layout : L R
Частота : 44,1 КГц
Частота кадров : 43,066 кадра/сек (1024 SPF)
Метод сжатия : С потерями
Размер потока : 44,1 Мбайт (7%)
Заголовок : IsoMedia File Produced by Google, 5-11-2011
Язык : English
Дата кодирования : UTC 2018-07-24 14:19:48
Дата пометки : UTC 2018-07-24 14:20:03
Видео
Идентификатор : 1
Формат : AVC
Формат/Информация : Advanced Video Codec
Профиль формата : High@L4
Настройки формата : CABAC / 1 Ref Frames
Параметр CABAC формата : Да
Параметр RefFrames формата : 1 кадр
Параметр GOP формата : M=1, N=50
Идентификатор кодека : avc1
Идентификатор кодека/Информация : Advanced Video Coding
Продолжительность : 48 м. 7 с.
Битрейт : 1580 Кбит/сек
Максимальный битрейт : 21,8 Мбит/сек
Ширина : 1920 пикселей
Высота : 1080 пикселей
Соотношение сторон : 16:9
Режим частоты кадров : Постоянный
Частота кадров : 25,000 кадров/сек
Цветовое пространство : YUV
Субдискретизация насыщенности : 4:2:0
Битовая глубина : 8 бит
Тип развёртки : Прогрессивная
Бит/(Пиксели*Кадры) : 0.030
Размер потока : 544 Мбайт (92%)
Дата пометки : UTC 2018-07-24 14:20:03
Цветовой диапазон : Limited
Основные цвета : BT.709
Характеристики трансфера : BT.709
Коэффициенты матрицы : BT.709
Codec configuration box : avcC
Аудио
Идентификатор : 2
Формат : AAC LC
Формат/Информация : Advanced Audio Codec Low Complexity
Идентификатор кодека : mp4a-40-2
Продолжительность : 48 м. 7 с.
Вид битрейта : Переменный
Битрейт : 128 Кбит/сек
Максимальный битрейт : 138 Кбит/сек
Каналы : 2 канала
Channel layout : L R
Частота : 44,1 КГц
Частота кадров : 43,066 кадра/сек (1024 SPF)
Метод сжатия : С потерями
Размер потока : 44,1 Мбайт (7%)
Заголовок : IsoMedia File Produced by Google, 5-11-2011
Язык : English
Дата кодирования : UTC 2018-07-24 14:19:48
Дата пометки : UTC 2018-07-24 14:20:03
Общее
Полное имя : I:\УРОКИ ПО 3ДМАКСУ\Ванная\Моделирование и визуализация ванной комнаты в 3ds Max\03.mp4
Формат : MPEG-4
Профиль формата : Base Media / Version 2
Идентификатор кодека : mp42 (isom/mp42)
Размер файла : 505 Мбайт
Продолжительность : 51 м. 45 с.
Режим общего битрейта : Переменный
Общий поток : 1363 Кбит/сек
Дата кодирования : UTC 2018-07-24 21:36:26
Дата пометки : UTC 2018-07-24 21:36:26
gsst : 0
gstd : 3105065
Видео
Идентификатор : 1
Формат : AVC
Формат/Информация : Advanced Video Codec
Профиль формата : High@L4
Настройки формата : CABAC / 1 Ref Frames
Параметр CABAC формата : Да
Параметр RefFrames формата : 1 кадр
Параметр GOP формата : M=1, N=50
Идентификатор кодека : avc1
Идентификатор кодека/Информация : Advanced Video Coding
Продолжительность : 51 м. 45 с.
Битрейт : 1233 Кбит/сек
Максимальный битрейт : 7381 Кбит/сек
Ширина : 1920 пикселей
Высота : 1080 пикселей
Соотношение сторон : 16:9
Режим частоты кадров : Постоянный
Частота кадров : 25,000 кадров/сек
Цветовое пространство : YUV
Субдискретизация насыщенности : 4:2:0
Битовая глубина : 8 бит
Тип развёртки : Прогрессивная
Бит/(Пиксели*Кадры) : 0.024
Размер потока : 456 Мбайт (90%)
Дата пометки : UTC 2018-07-24 21:37:17
Цветовой диапазон : Limited
Основные цвета : BT.709
Характеристики трансфера : BT.709
Коэффициенты матрицы : BT.709
Codec configuration box : avcC
Аудио
Идентификатор : 2
Формат : AAC LC
Формат/Информация : Advanced Audio Codec Low Complexity
Идентификатор кодека : mp4a-40-2
Продолжительность : 51 м. 45 с.
Вид битрейта : Переменный
Битрейт : 128 Кбит/сек
Максимальный битрейт : 137 Кбит/сек
Каналы : 2 канала
Channel layout : L R
Частота : 44,1 КГц
Частота кадров : 43,066 кадра/сек (1024 SPF)
Метод сжатия : С потерями
Размер потока : 47,4 Мбайт (9%)
Заголовок : IsoMedia File Produced by Google, 5-11-2011
Язык : English
Дата кодирования : UTC 2018-07-24 21:36:56
Дата пометки : UTC 2018-07-24 21:37:17
Полное имя : I:\УРОКИ ПО 3ДМАКСУ\Ванная\Моделирование и визуализация ванной комнаты в 3ds Max\04.mp4
Формат : MPEG-4
Профиль формата : Base Media / Version 2
Идентификатор кодека : mp42 (isom/mp42)
Размер файла : 605 Мбайт
Продолжительность : 47 м. 8 с.
Режим общего битрейта : Переменный
Общий поток : 1794 Кбит/сек
Дата кодирования : UTC 2018-07-24 16:55:00
Дата пометки : UTC 2018-07-24 16:55:00
gsst : 0
gstd : 2829025
Видео
Идентификатор : 1
Формат : AVC
Формат/Информация : Advanced Video Codec
Профиль формата : High@L4
Настройки формата : CABAC / 1 Ref Frames
Параметр CABAC формата : Да
Параметр RefFrames формата : 1 кадр
Параметр GOP формата : M=1, N=50
Идентификатор кодека : avc1
Идентификатор кодека/Информация : Advanced Video Coding
Продолжительность : 47 м. 8 с.
Битрейт : 1664 Кбит/сек
Максимальный битрейт : 18,6 Мбит/сек
Ширина : 1920 пикселей
Высота : 1080 пикселей
Соотношение сторон : 16:9
Режим частоты кадров : Постоянный
Частота кадров : 25,000 кадров/сек
Цветовое пространство : YUV
Субдискретизация насыщенности : 4:2:0
Битовая глубина : 8 бит
Тип развёртки : Прогрессивная
Бит/(Пиксели*Кадры) : 0.032
Размер потока : 561 Мбайт (93%)
Дата пометки : UTC 2018-07-24 16:55:23
Цветовой диапазон : Limited
Основные цвета : BT.709
Характеристики трансфера : BT.709
Коэффициенты матрицы : BT.709
Codec configuration box : avcC
Аудио
Идентификатор : 2
Формат : AAC LC
Формат/Информация : Advanced Audio Codec Low Complexity
Идентификатор кодека : mp4a-40-2
Продолжительность : 47 м. 8 с.
Вид битрейта : Переменный
Битрейт : 128 Кбит/сек
Максимальный битрейт : 137 Кбит/сек
Каналы : 2 канала
Channel layout : L R
Частота : 44,1 КГц
Частота кадров : 43,066 кадра/сек (1024 SPF)
Метод сжатия : С потерями
Размер потока : 43,2 Мбайт (7%)
Заголовок : IsoMedia File Produced by Google, 5-11-2011
Язык : English
Дата кодирования : UTC 2018-07-24 16:55:14
Дата пометки : UTC 2018-07-24 16:55:23
Общее
Полное имя : I:\УРОКИ ПО 3ДМАКСУ\Ванная\Моделирование и визуализация ванной комнаты в 3ds Max\05.mp4
Формат : MPEG-4
Профиль формата : Base Media / Version 2
Идентификатор кодека : mp42 (isom/mp42)
Размер файла : 559 Мбайт
Продолжительность : 46 м. 26 с.
Режим общего битрейта : Переменный
Общий поток : 1684 Кбит/сек
Дата кодирования : UTC 2018-07-24 13:41:15
Дата пометки : UTC 2018-07-24 13:41:15
gsst : 0
gstd : 2786231
Видео
Идентификатор : 1
Формат : AVC
Формат/Информация : Advanced Video Codec
Профиль формата : High@L4
Настройки формата : CABAC / 1 Ref Frames
Параметр CABAC формата : Да
Параметр RefFrames формата : 1 кадр
Параметр GOP формата : M=1, N=50
Идентификатор кодека : avc1
Идентификатор кодека/Информация : Advanced Video Coding
Продолжительность : 46 м. 26 с.
Битрейт : 1554 Кбит/сек
Максимальный битрейт : 14,4 Мбит/сек
Ширина : 1920 пикселей
Высота : 1080 пикселей
Соотношение сторон : 16:9
Режим частоты кадров : Постоянный
Частота кадров : 25,000 кадров/сек
Цветовое пространство : YUV
Субдискретизация насыщенности : 4:2:0
Битовая глубина : 8 бит
Тип развёртки : Прогрессивная
Бит/(Пиксели*Кадры) : 0.030
Размер потока : 516 Мбайт (92%)
Дата пометки : UTC 2018-07-24 13:44:18
Цветовой диапазон : Limited
Основные цвета : BT.709
Характеристики трансфера : BT.709
Коэффициенты матрицы : BT.709
Codec configuration box : avcC
Аудио
Идентификатор : 2
Формат : AAC LC
Формат/Информация : Advanced Audio Codec Low Complexity
Идентификатор кодека : mp4a-40-2
Продолжительность : 46 м. 26 с.
Вид битрейта : Переменный
Битрейт : 128 Кбит/сек
Максимальный битрейт : 137 Кбит/сек
Каналы : 2 канала
Channel layout : L R
Частота : 44,1 КГц
Частота кадров : 43,066 кадра/сек (1024 SPF)
Метод сжатия : С потерями
Размер потока : 42,5 Мбайт (8%)
Заголовок : IsoMedia File Produced by Google, 5-11-2011
Язык : English
Дата кодирования : UTC 2018-07-24 13:43:18
Дата пометки : UTC 2018-07-24 13:44:18
Общее
Полное имя : I:\УРОКИ ПО 3ДМАКСУ\Ванная\Моделирование и визуализация ванной комнаты в 3ds Max\06.mp4
Формат : MPEG-4
Профиль формата : Base Media / Version 2
Идентификатор кодека : mp42 (isom/mp42)
Размер файла : 565 Мбайт
Продолжительность : 49 м. 35 с.
Режим общего битрейта : Переменный
Общий поток : 1593 Кбит/сек
Дата кодирования : UTC 2018-07-24 15:52:04
Дата пометки : UTC 2018-07-24 15:52:04
gsst : 0
gstd : 2975868
Видео
Идентификатор : 1
Формат : AVC
Формат/Информация : Advanced Video Codec
Профиль формата : High@L4
Настройки формата : CABAC / 1 Ref Frames
Параметр CABAC формата : Да
Параметр RefFrames формата : 1 кадр
Параметр GOP формата : M=1, N=50
Идентификатор кодека : avc1
Идентификатор кодека/Информация : Advanced Video Coding
Продолжительность : 49 м. 35 с.
Битрейт : 1462 Кбит/сек
Максимальный битрейт : 11,5 Мбит/сек
Ширина : 1920 пикселей
Высота : 1080 пикселей
Соотношение сторон : 16:9
Режим частоты кадров : Постоянный
Частота кадров : 25,000 кадров/сек
Цветовое пространство : YUV
Субдискретизация насыщенности : 4:2:0
Битовая глубина : 8 бит
Тип развёртки : Прогрессивная
Бит/(Пиксели*Кадры) : 0.028
Размер потока : 519 Мбайт (92%)
Дата пометки : UTC 2018-07-24 15:53:27
Цветовой диапазон : Limited
Основные цвета : BT.709
Характеристики трансфера : BT.709
Коэффициенты матрицы : BT.709
Codec configuration box : avcC
Аудио
Идентификатор : 2
Формат : AAC LC
Формат/Информация : Advanced Audio Codec Low Complexity
Идентификатор кодека : mp4a-40-2
Продолжительность : 49 м. 35 с.
Вид битрейта : Переменный
Битрейт : 128 Кбит/сек
Максимальный битрейт : 138 Кбит/сек
Каналы : 2 канала
Channel layout : L R
Частота : 44,1 КГц
Частота кадров : 43,066 кадра/сек (1024 SPF)
Метод сжатия : С потерями
Размер потока : 45,4 Мбайт (8%)
Заголовок : IsoMedia File Produced by Google, 5-11-2011
Язык : English
Дата кодирования : UTC 2018-07-24 15:52:41
Дата пометки : UTC 2018-07-24 15:53:27
Общее
Полное имя : I:\УРОКИ ПО 3ДМАКСУ\Ванная\Моделирование и визуализация ванной комнаты в 3ds Max\07.mp4
Формат : MPEG-4
Профиль формата : Base Media / Version 2
Идентификатор кодека : mp42 (isom/mp42)
Размер файла : 536 Мбайт
Продолжительность : 44 м. 21 с.
Режим общего битрейта : Переменный
Общий поток : 1690 Кбит/сек
Дата кодирования : UTC 2018-07-24 23:08:11
Дата пометки : UTC 2018-07-24 23:08:11
gsst : 0
gstd : 2661145
Видео
Идентификатор : 1
Формат : AVC
Формат/Информация : Advanced Video Codec
Профиль формата : High@L4
Настройки формата : CABAC / 1 Ref Frames
Параметр CABAC формата : Да
Параметр RefFrames формата : 1 кадр
Параметр GOP формата : M=1, N=50
Идентификатор кодека : avc1
Идентификатор кодека/Информация : Advanced Video Coding
Продолжительность : 44 м. 21 с.
Битрейт : 1560 Кбит/сек
Максимальный битрейт : 14,5 Мбит/сек
Ширина : 1920 пикселей
Высота : 1080 пикселей
Соотношение сторон : 16:9
Режим частоты кадров : Постоянный
Частота кадров : 25,000 кадров/сек
Цветовое пространство : YUV
Субдискретизация насыщенности : 4:2:0
Битовая глубина : 8 бит
Тип развёртки : Прогрессивная
Бит/(Пиксели*Кадры) : 0.030
Размер потока : 495 Мбайт (92%)
Дата пометки : UTC 2018-07-24 23:10:07
Цветовой диапазон : Limited
Основные цвета : BT.709
Характеристики трансфера : BT.709
Коэффициенты матрицы : BT.709
Codec configuration box : avcC
Аудио
Идентификатор : 2
Формат : AAC LC
Формат/Информация : Advanced Audio Codec Low Complexity
Идентификатор кодека : mp4a-40-2
Продолжительность : 44 м. 21 с.
Вид битрейта : Переменный
Битрейт : 128 Кбит/сек
Максимальный битрейт : 138 Кбит/сек
Каналы : 2 канала
Channel layout : L R
Частота : 44,1 КГц
Частота кадров : 43,066 кадра/сек (1024 SPF)
Метод сжатия : С потерями
Размер потока : 40,6 Мбайт (8%)
Заголовок : IsoMedia File Produced by Google, 5-11-2011
Язык : English
Дата кодирования : UTC 2018-07-24 23:09:17
Дата пометки : UTC 2018-07-24 23:10:07
Общее
Полное имя : I:\УРОКИ ПО 3ДМАКСУ\Ванная\Моделирование и визуализация ванной комнаты в 3ds Max\08.mp4
Формат : MPEG-4
Профиль формата : Base Media / Version 2
Идентификатор кодека : mp42 (isom/mp42)
Размер файла : 586 Мбайт
Продолжительность : 46 м. 13 с.
Режим общего битрейта : Переменный
Общий поток : 1773 Кбит/сек
Дата кодирования : UTC 2018-07-24 19:51:38
Дата пометки : UTC 2018-07-24 19:51:38
gsst : 0
gstd : 2773738
Видео
Идентификатор : 1
Формат : AVC
Формат/Информация : Advanced Video Codec
Профиль формата : High@L4
Настройки формата : CABAC / 1 Ref Frames
Параметр CABAC формата : Да
Параметр RefFrames формата : 1 кадр
Параметр GOP формата : M=1, N=50
Идентификатор кодека : avc1
Идентификатор кодека/Информация : Advanced Video Coding
Продолжительность : 46 м. 13 с.
Битрейт : 1643 Кбит/сек
Максимальный битрейт : 16,0 Мбит/сек
Ширина : 1920 пикселей
Высота : 1080 пикселей
Соотношение сторон : 16:9
Режим частоты кадров : Постоянный
Частота кадров : 25,000 кадров/сек
Цветовое пространство : YUV
Субдискретизация насыщенности : 4:2:0
Битовая глубина : 8 бит
Тип развёртки : Прогрессивная
Бит/(Пиксели*Кадры) : 0.032
Размер потока : 543 Мбайт (93%)
Дата пометки : UTC 2018-07-24 19:53:30
Цветовой диапазон : Limited
Основные цвета : BT.709
Характеристики трансфера : BT.709
Коэффициенты матрицы : BT.709
Codec configuration box : avcC
Аудио
Идентификатор : 2
Формат : AAC LC
Формат/Информация : Advanced Audio Codec Low Complexity
Идентификатор кодека : mp4a-40-2
Продолжительность : 46 м. 13 с.
Вид битрейта : Переменный
Битрейт : 128 Кбит/сек
Максимальный битрейт : 137 Кбит/сек
Каналы : 2 канала
Channel layout : L R
Частота : 44,1 КГц
Частота кадров : 43,066 кадра/сек (1024 SPF)
Метод сжатия : С потерями
Размер потока : 42,3 Мбайт (7%)
Заголовок : IsoMedia File Produced by Google, 5-11-2011
Язык : English
Дата кодирования : UTC 2018-07-24 19:52:37
Дата пометки : UTC 2018-07-24 19:53:30
Общее
Полное имя : I:\УРОКИ ПО 3ДМАКСУ\Ванная\Моделирование и визуализация ванной комнаты в 3ds Max\09.mp4
Формат : MPEG-4
Профиль формата : Base Media / Version 2
Идентификатор кодека : mp42 (isom/mp42)
Размер файла : 546 Мбайт
Продолжительность : 37 м. 59 с.
Режим общего битрейта : Переменный
Общий поток : 2010 Кбит/сек
Дата кодирования : UTC 2018-07-24 21:08:11
Дата пометки : UTC 2018-07-24 21:08:11
gsst : 0
gstd : 2279061
Видео
Идентификатор : 1
Формат : AVC
Формат/Информация : Advanced Video Codec
Профиль формата : High@L4
Настройки формата : CABAC / 1 Ref Frames
Параметр CABAC формата : Да
Параметр RefFrames формата : 1 кадр
Параметр GOP формата : M=1, N=50
Идентификатор кодека : avc1
Идентификатор кодека/Информация : Advanced Video Coding
Продолжительность : 37 м. 59 с.
Битрейт : 1879 Кбит/сек
Максимальный битрейт : 18,0 Мбит/сек
Ширина : 1920 пикселей
Высота : 1080 пикселей
Соотношение сторон : 16:9
Режим частоты кадров : Постоянный
Частота кадров : 25,000 кадров/сек
Цветовое пространство : YUV
Субдискретизация насыщенности : 4:2:0
Битовая глубина : 8 бит
Тип развёртки : Прогрессивная
Бит/(Пиксели*Кадры) : 0.036
Размер потока : 511 Мбайт (94%)
Дата пометки : UTC 2018-07-24 21:10:02
Цветовой диапазон : Limited
Основные цвета : BT.709
Характеристики трансфера : BT.709
Коэффициенты матрицы : BT.709
Codec configuration box : avcC
Аудио
Идентификатор : 2
Формат : AAC LC
Формат/Информация : Advanced Audio Codec Low Complexity
Идентификатор кодека : mp4a-40-2
Продолжительность : 37 м. 59 с.
Вид битрейта : Переменный
Битрейт : 128 Кбит/сек
Максимальный битрейт : 138 Кбит/сек
Каналы : 2 канала
Channel layout : L R
Частота : 44,1 КГц
Частота кадров : 43,066 кадра/сек (1024 SPF)
Метод сжатия : С потерями
Размер потока : 34,8 Мбайт (6%)
Заголовок : IsoMedia File Produced by Google, 5-11-2011
Язык : English
Дата кодирования : UTC 2018-07-24 21:09:09
Дата пометки : UTC 2018-07-24 21:10:02

Дополнительная информация:

На протяжении девяти занятий дается исчерпывающая практическая информация по профессиональному 3d моделированию основной "коробки" помещения, освещения, мебели, сантехники и декоративных элементов. Подробно описывается процесс настройки материалов, текстур, источников света, камер и параметров реалистичной визуализации. Демонстрируются критически важные аспекты правильного построения трехмерной сетки объектов, обсуждаются принципы и логика профессионального трехмерного моделирования, текстурирования и визуализации.
Для рендеринга на видеокурсе используется самый популярный на сегодняшний день визуализатор Corona Renderer.
Видеокурс построен по принципу "доступно для всех". Весь материал профильтрован от ненужного информационного "мусора", преподносится в максимально понятной форме простыми словами.
Скриншоты:
Скачать .torrent

Для того, чтобы скачать торрент-файл

Константин Тимофеев - Видеокурс «Моделирование и визуализация ванной комнаты в 3ds Max» (2017)

с нашего сайта, Вам необходимо Войти на сайт под своим логином! Если у Вас ещё нет логина, тогда Вам нужно сначала Зарегистрироваться!

Как скачивать? · Что такое торрент? · Рейтинг и ограничения

Показать сообщения:    
Ответить на тему

Константин Тимофеев - Видеокурс «Моделирование и визуализация ванной комнаты в 3ds Max» (2017) скачать торрент (torrent), видеоуроки, тренинги, обучающее видео и видеокурсы

Текущее время: Сегодня 00:02

Часовой пояс: GMT + 4



Вы не можете начинать темы
Вы не можете отвечать на сообщения
Вы не можете редактировать свои сообщения
Вы не можете удалять свои сообщения
Вы не можете голосовать в опросах
Вы не можете прикреплять файлы к сообщениям
Вы не можете скачивать файлы