Сергей Маковский - Миллион на перепродаже автомобилей (2017)

Ответить на тему
 
Автор Сообщение

Yulya ®

Сергей Маковский | Миллион на перепродаже автомобилей (2017) Screener [H.264]- Автор (режиссер): Сергей Маковский
Производство: Перекуп-live
Жанр: Веб-тренинг
Описание: Курс по перепродаже автомобилей.
Автобизнес: ПРОЙДЯ КУРС ТЫ СМОЖЕШЬ:
- быстро и постоянно покупать «сладкие варианты» на перепродажу и хорошо на этом зарабатывать.
- получать максимально низкую цену на автомобили.
- избежать распространённых ошибок «быстрые решения ».
- продавать максимально быстро и дорого.
- делегировать некоторые части процесса, повышая тем самым свою эффективность.
- «Залезать» продавцам и покупателям в голову и понимать их намерения.
- действовать эффективней обычного перекупщика.
Продолжительность: 18:18:38
Качество видео: Screener
Видео: AVC/H.264, 854х480, ~55,0 Кбит/сек
Аудио: AAC, 2 ch, 72,0 Кбит/сек

Mediainfo:

Формат : MPEG-4
Профиль формата : Base Media
Идентификатор кодека : isom (isom/iso2/avc1/mp41)
Размер файла : 138 Мбайт
Продолжительность : 2 ч. 28 м.
Режим общего битрейта : Переменный
Общий поток : 130 Кбит/сек
Программа кодирования : Lavf56.15.102
Видео
Идентификатор : 1
Формат : AVC
Формат/Информация : Advanced Video Codec
Профиль формата : Baseline@L3
Настройки формата : 2 Ref Frames
Параметр CABAC формата : Нет
Параметр RefFrames формата : 2 кадра
Идентификатор кодека : avc1
Идентификатор кодека/Информация : Advanced Video Coding
Продолжительность : 2 ч. 28 м.
Битрейт : 55,0 Кбит/сек
Ширина : 854 пикселя
Высота : 480 пикселей
Соотношение сторон : 16:9
Режим частоты кадров : Постоянный
Частота кадров : 20,000 кадров/сек
Цветовое пространство : YUV
Субдискретизация насыщенности : 4:2:0
Битовая глубина : 8 бит
Тип развёртки : Прогрессивная
Бит/(Пиксели*Кадры) : 0.007
Размер потока : 58,0 Мбайт (42%)
Библиотека кодирования : x264 core 142
Настройки программы : cabac=0 / ref=2 / deblock=1:0:0 / analyse=0x1:0x111 / me=hex / subme=4 / psy=1 / psy_rd=1.00:0.00 / mixed_ref=0 / me_range=16 / chroma_me=1 / trellis=1 / 8x8dct=0 / cqm=0 / deadzone=21,11 / fast_pskip=1 / chroma_qp_offset=0 / threads=12 / lookahead_threads=3 / sliced_threads=0 / nr=0 / decimate=1 / interlaced=0 / bluray_compat=0 / constrained_intra=0 / bframes=0 / weightp=0 / keyint=250 / keyint_min=20 / scenecut=40 / intra_refresh=0 / rc_lookahead=20 / rc=abr / mbtree=1 / bitrate=55 / ratetol=1.0 / qcomp=0.60 / qpmin=0 / qpmax=69 / qpstep=4 / ip_ratio=1.40 / aq=1:1.00
Codec configuration box : avcC
Аудио
Идентификатор : 2
Формат : AAC LC
Формат/Информация : Advanced Audio Codec Low Complexity
Идентификатор кодека : mp4a-40-2
Продолжительность : 2 ч. 28 м.
Вид битрейта : Переменный
Битрейт : 72,0 Кбит/сек
Максимальный битрейт : 96,0 Кбит/сек
Каналы : 2 канала
Channel layout : L R
Частота : 44,1 КГц
Частота кадров : 43,066 кадра/сек (1024 SPF)
Метод сжатия : С потерями
Размер потока : 76,1 Мбайт (55%)
Default : Да
AlternateGroup/String : 1

Продолжение описания

ТЫ ПОЛУЧИШЬ ОТВЕТЫ НА СЛЕДУЮЩИЕ ВОПРОСЫ:
- как находить и «выхватывать сладкие варианты».
- как переоформлять авто.
- как правильно платить налоги.
- как зарабатывать максимум с имеющимися у вас деньги.
- как проверять машины на рег. ограничения, кредит, розыск и т.д.
- как самостоятельно диагностировать кузов, двигатель, КПП, подвеску, электрику и т.д.
- что делать если не продал за 10 дней.
Скриншоты:
Скачать .torrent

Для того, чтобы скачать торрент-файл

Сергей Маковский - Миллион на перепродаже автомобилей (2017)

с нашего сайта, Вам необходимо Войти на сайт под своим логином! Если у Вас ещё нет логина, тогда Вам нужно сначала Зарегистрироваться!

Как скачивать? · Что такое торрент? · Рейтинг и ограничения

bulletinsky

спасибо за раздачу! respect
Показать сообщения:    
Ответить на тему

Сергей Маковский - Миллион на перепродаже автомобилей (2017) скачать торрент (torrent), видеоуроки, тренинги, обучающее видео и видеокурсы

Текущее время: Сегодня 17:55

Часовой пояс: GMT + 4



Вы не можете начинать темы
Вы не можете отвечать на сообщения
Вы не можете редактировать свои сообщения
Вы не можете удалять свои сообщения
Вы не можете голосовать в опросах
Вы не можете прикреплять файлы к сообщениям
Вы не можете скачивать файлы