Последнее из V.I.P.-раздела

15-Июн-19 05:57
15-Июн-19 05:54
15-Июн-19 05:48
15-Июн-19 05:46
15-Июн-19 05:43
15-Июн-19 05:33
15-Июн-19 05:29
15-Июн-19 05:26
15-Июн-19 05:24
15-Июн-19 05:22

Учебный центр 1C - Знакомство с платформой 1С:Предприятие 8.3 (2018)

Ответить на тему
 
Автор Сообщение

Yulya ®

Учебный центр 1C | Знакомство с платформой 1С:Предприятие 8.3 (2018) PCRec [H.264] - Автор (режиссер): Учебный центр 1C
Жанр: Программирование
Описание:
Цель курса - дать слушателям базовое представление о работе с объектами и механизмами платформы, сформировать у них практические навыки по конфигурированию и программированию на сквозном примере.
Основной методический подход в обучении на данном курсе состоит в самостоятельном выполнении обучаемыми демонстрируемых примеров и приемов конфигурирования под руководством опытного преподавателя ("Делай как я").
Продолжительность: 11:23:54
Качество видео: PCRec
Видео: AVC/H.264, 1024x768, ~304 Kbps
Аудио: AAC, 2 ch, 126 kbps

Mediainfo:

Полное имя                               : Видеокурс 1с Программирование\1 Введение.mp4
Формат : MPEG-4
Профиль формата : Base Media / Version 2
Идентификатор кодека : mp42 (isom/mp42)
Размер файла : 18,2 Мбайт
Продолжительность : 5 м. 52 с.
Режим общего битрейта : Переменный
Общий поток : 432 Кбит/сек
Дата кодирования : UTC 2015-08-31 08:28:18
Дата пометки : UTC 2015-08-31 08:28:18
Видео
Идентификатор : 1
Формат : AVC
Формат/Информация : Advanced Video Codec
Профиль формата : High@L3.1
Настройки формата : CABAC / 3 Ref Frames
Параметр CABAC формата : Да
Параметр RefFrames формата : 3 кадра
Идентификатор кодека : avc1
Идентификатор кодека/Информация : Advanced Video Coding
Продолжительность : 5 м. 52 с.
Продолжительность оригинала : 5 м. 52 с.
Битрейт : 304 Кбит/сек
Ширина : 1024 пикселя
Высота : 768 пикселей
Соотношение сторон : 4:3
Режим частоты кадров : Переменный
Частота кадров : 30,000 кадров/сек
Минимальная частота кадров : 30,000 кадров/сек
Максимальная частота кадров : 30,030 кадров/сек
Стандарт вещания : NTSC
Цветовое пространство : YUV
Субдискретизация насыщенности : 4:2:0
Битовая глубина : 8 бит
Тип развёртки : Прогрессивная
Бит/(Пиксели*Кадры) : 0.013
Размер потока : 12,8 Мбайт (70%)
Размер потока оригинала : 12,8 Мбайт (70%)
Язык : English
Дата кодирования : UTC 2015-08-31 08:28:18
Дата пометки : UTC 2015-08-31 08:28:18
Цветовой диапазон : Limited
Основные цвета : BT.709
Характеристики трансфера : BT.709
Коэффициенты матрицы : BT.709
mdhd_Duration : 352733
Codec configuration box : avcC
Аудио
Идентификатор : 2
Формат : AAC LC
Формат/Информация : Advanced Audio Codec Low Complexity
Идентификатор кодека : mp4a-40-2
Продолжительность : 5 м. 52 с.
Продолжительность оригинала : 5 м. 52 с.
Вид битрейта : Переменный
Битрейт : 126 Кбит/сек
Максимальный битрейт : 168 Кбит/сек
Каналы : 2 канала
Channel layout : L R
Частота : 44,1 КГц
Частота кадров : 43,066 кадра/сек (1024 SPF)
Метод сжатия : С потерями
Размер потока : 5,28 Мбайт (29%)
Размер потока оригинала : 5,28 Мбайт (29%)
Язык : English
Дата кодирования : UTC 2015-08-31 08:28:18
Дата пометки : UTC 2015-08-31 08:28:18
mdhd_Duration : 352758

Содержание:

1 Введение.
2 Создание новой информационной базы.
3 Основные принципы работы с программой (Конфигуратор и 1С Предприятие).
4 Самостоятельная работа (Создание Константы "Генеральный директор").
5 Общее описание и назначение справочников. Создание справочника "Номенклатура".
6 Иерархия. Создание справочника "Подразделение".
7 Предопределенные элементы справочника. Создание справочника "Контрагенты".
8 Реквизиты справочника. Создание справочника "Cотрудники". Ссылочные данные.
9 Особенности ссылочных данных.
10 Табличная часть справочника.
11 Самостоятельная работа. (Добавить в табличную часть Образование).
12 Проверка самостоятельной работы. Подчинение.
13 Форма.
14 Форма списка форма элемента.
15 Перечисление.
16 Форма элемента (расположение и группировка элементов).
17 Объект команда.
18 Обработчик события.
19 Самостоятельная работа (Обработчик события).
20 Документ (Расход денег).
21 Самостоятельная работа (Расход денег). Улучшение настройки документа.
22 Самостоятельная работа (Приход денег).
23 Упрощенный вариант "Видимость" с помощью обработчика события.
24 Реквизиты табчасти Товары (Приходная накладная). Сумма товаров. Итоговая сумма товаров.
25 Самостоятельная работа (Создание документа расходная накладная).
26 Улучшения Расходной накладной.
27 Расчет Сумма документа.
28 Улучшения Расходной накладной. Печать документа. Конструктор печати.
29 Функциональные опции (Валютный процесс продаж).
30 Подсистемы и интерфейс.
31 Регистр сведений.
32 Запрос. Отчет. Компоновка данных.
33 Заключение.
Скриншоты:

Дополнительные скриншоты:

Скачать .torrent

Для того, чтобы скачать торрент-файл

Учебный центр 1C - Знакомство с платформой 1С:Предприятие 8.3 (2018)

с нашего сайта, Вам необходимо Войти на сайт под своим логином! Если у Вас ещё нет логина, тогда Вам нужно сначала Зарегистрироваться!

Как скачивать? · Что такое торрент? · Рейтинг и ограничения

Показать сообщения:    
Ответить на тему

Учебный центр 1C - Знакомство с платформой 1С:Предприятие 8.3 (2018) скачать торрент (torrent), видеоуроки, тренинги, обучающее видео и видеокурсы

Текущее время: Сегодня 03:35

Часовой пояс: GMT + 4



Вы не можете начинать темы
Вы не можете отвечать на сообщения
Вы не можете редактировать свои сообщения
Вы не можете удалять свои сообщения
Вы не можете голосовать в опросах
Вы не можете прикреплять файлы к сообщениям
Вы не можете скачивать файлы