loftschool - React.js. Разработка веб-приложений (2018)

Ответить на тему
 
Автор Сообщение

Yulya ®

loftschool | React.js. Разработка веб-приложений (2018) PCRec [H.264] - Автор (режиссер): loftschool
Жанр: Программирование, JavaScript, React
Описание:
Современный веб — это не просто сайты, это полноценные приложения, требующие правильных подходов по организации кода и логики. Этот курс научит вас строить большие и сложные системы, в которых легко и просто ориентироваться. Разделять логику работы на правильные абстракции и получать отличный результат в скорости и простоте работы ваших приложений.
Продолжительность: 28:00:26
Качество видео: PCRec
Видео: AVC/H.264, 1440x1080-1832x1056, ~21-1428 Kbps
Аудио: AAC, 2 ch, 162-195 Kbps

Mediainfo:

Общее
Полное имя : .\06. Redux\011 Redux часть 1.mp4
Формат : MPEG-4
Профиль формата : Base Media
Идентификатор кодека : isom (isom/mp42)
Размер файла : 36,3 Мбайт
Продолжительность : 24 м. 10 с.
Режим общего битрейта : Переменный
Общий поток : 210 Кбит/сек
Дата кодирования : UTC 2018-07-06 11:17:45
Дата пометки : UTC 2018-07-06 11:17:45
Программа кодирования : BandiMp4Muxer 1.0
Видео
Идентификатор : 1
Формат : AVC
Формат/Информация : Advanced Video Codec
Профиль формата : Baseline@L4
Настройки формата : 1 Ref Frames
Параметр CABAC формата : Нет
Параметр RefFrames формата : 1 кадр
Идентификатор кодека : avc1
Идентификатор кодека/Информация : Advanced Video Coding
Продолжительность : 24 м. 10 с.
Битрейт : 32,6 Кбит/сек
Ширина : 1440 пикселей
Высота : 1080 пикселей
Соотношение сторон : 4:3
Режим частоты кадров : Переменный
Частота кадров : 5,198 кадров/сек
Минимальная частота кадров : 1,667 кадра/сек
Максимальная частота кадров : 30,030 кадров/сек
Цветовое пространство : YUV
Субдискретизация насыщенности : 4:2:0
Битовая глубина : 8 бит
Тип развёртки : Прогрессивная
Бит/(Пиксели*Кадры) : 0.004
Размер потока : 5,64 Мбайт (16%)
Язык : English
Дата кодирования : UTC 2018-07-06 11:17:45
Дата пометки : UTC 2018-07-06 11:17:45
Аудио
Идентификатор : 2
Формат : AAC
Формат/Информация : Advanced Audio Codec
Профиль формата : LC
Идентификатор кодека : mp4a-40-2
Продолжительность : 24 м. 9 с.
Продолжительность оригинала : 24 м. 9 с.
Вид битрейта : Переменный
Битрейт : 174 Кбит/сек
Каналы : 2 канала
Расположение каналов : Front: L R
Частота : 48,0 КГц
Частота кадров : 46,875 кадров/сек (1024 SPF)
Метод сжатия : С потерями
Размер потока : 30,0 Мбайт (83%)
Размер потока оригинала : 30,0 Мбайт (83%)
Язык : English
Дата кодирования : UTC 2018-07-06 11:17:45
Дата пометки : UTC 2018-07-06 11:17:45
mdhd_Duration : 1449877
Общее
Полное имя : .\07. Redux middlewares\013 Redux middlewares.mp4
Формат : MPEG-4
Профиль формата : Base Media
Идентификатор кодека : isom (mp41)
Размер файла : 727 Мбайт
Продолжительность : 1 ч. 44 м.
Режим общего битрейта : Переменный
Общий поток : 972 Кбит/сек
Дата кодирования : UTC 2018-07-28 12:13:37
Дата пометки : UTC 2018-07-28 12:13:37
Программа кодирования : Bandicam 4.1.4.1413 / GDI / Nvidia NVENC
Видео
Идентификатор : 1
Формат : AVC
Формат/Информация : Advanced Video Codec
Профиль формата : High@L4
Настройки формата : CABAC / 1 Ref Frames
Параметр CABAC формата : Да
Параметр RefFrames формата : 1 кадр
Идентификатор кодека : avc1
Идентификатор кодека/Информация : Advanced Video Coding
Продолжительность : 1 ч. 44 м.
Битрейт : 768 Кбит/сек
Ширина : 1584 пикселя
Высота : 1012 пикселей
Соотношение сторон : 16:10
Режим частоты кадров : Переменный
Частота кадров : 27,093 кадров/сек
Минимальная частота кадров : 14,993 кадров/сек
Максимальная частота кадров : 30,030 кадров/сек
Частота кадров в оригинале : 30,000 кадров/сек
Цветовое пространство : YUV
Субдискретизация насыщенности : 4:2:0
Битовая глубина : 8 бит
Тип развёртки : Прогрессивная
Бит/(Пиксели*Кадры) : 0.018
Размер потока : 574 Мбайт (79%)
Язык : English
Дата кодирования : UTC 2018-07-28 12:13:37
Дата пометки : UTC 2018-07-28 12:13:37
Аудио
Идентификатор : 2
Формат : AAC
Формат/Информация : Advanced Audio Codec
Профиль формата : LC
Идентификатор кодека : mp4a-40-2
Продолжительность : 1 ч. 44 м.
Вид битрейта : Переменный
Битрейт : 192 Кбит/сек
Максимальный битрейт : 373 Кбит/сек
Каналы : 2 канала
Расположение каналов : Front: L R
Частота : 48,0 КГц
Частота кадров : 46,875 кадров/сек (1024 SPF)
Метод сжатия : С потерями
Размер потока : 146 Мбайт (20%)
Язык : English
Дата кодирования : UTC 2018-07-28 12:13:37
Дата пометки : UTC 2018-07-28 12:13:37
Общее
Полное имя : .\05. Роутинг на клиенте\010 Роутинг на клиенте часть 2.mp4
Формат : MPEG-4
Профиль формата : Base Media
Идентификатор кодека : isom (isom/mp42)
Размер файла : 603 Мбайт
Продолжительность : 1 ч. 13 м.
Режим общего битрейта : Переменный
Общий поток : 1145 Кбит/сек
Дата кодирования : UTC 2018-07-01 13:32:45
Дата пометки : UTC 2018-07-01 13:32:45
Программа кодирования : BandiMp4Muxer 1.0
Видео
Идентификатор : 1
Формат : AVC
Формат/Информация : Advanced Video Codec
Профиль формата : Baseline@L4
Настройки формата : 1 Ref Frames
Параметр CABAC формата : Нет
Параметр RefFrames формата : 1 кадр
Идентификатор кодека : avc1
Идентификатор кодека/Информация : Advanced Video Coding
Продолжительность : 1 ч. 13 м.
Битрейт : 969 Кбит/сек
Ширина : 1712 пикселей
Высота : 1036 пикселей
Соотношение сторон : 5:3
Режим частоты кадров : Переменный
Частота кадров : 28,659 кадров/сек
Минимальная частота кадров : 1,000 кадр/сек
Максимальная частота кадров : 30,030 кадров/сек
Цветовое пространство : YUV
Субдискретизация насыщенности : 4:2:0
Битовая глубина : 8 бит
Тип развёртки : Прогрессивная
Бит/(Пиксели*Кадры) : 0.019
Размер потока : 510 Мбайт (85%)
Язык : English
Дата кодирования : UTC 2018-07-01 13:32:45
Дата пометки : UTC 2018-07-01 13:32:45
Аудио
Идентификатор : 2
Формат : AAC
Формат/Информация : Advanced Audio Codec
Профиль формата : LC
Идентификатор кодека : mp4a-40-2
Продолжительность : 1 ч. 13 м.
Продолжительность оригинала : 1 ч. 13 м.
Вид битрейта : Переменный
Битрейт : 170 Кбит/сек
Каналы : 2 канала
Расположение каналов : Front: L R
Частота : 48,0 КГц
Частота кадров : 46,875 кадров/сек (1024 SPF)
Метод сжатия : С потерями
Размер потока : 89,7 Мбайт (15%)
Размер потока оригинала : 89,7 Мбайт (15%)
Язык : English
Дата кодирования : UTC 2018-07-01 13:32:45
Дата пометки : UTC 2018-07-01 13:32:45
mdhd_Duration : 4416226
Общее
Полное имя : .\15. Введение в Node.js\023 Введение в Node.js.mp4
Формат : MPEG-4
Профиль формата : Base Media
Идентификатор кодека : isom (isom/mp42)
Размер файла : 260 Мбайт
Продолжительность : 55 м. 24 с.
Режим общего битрейта : Переменный
Общий поток : 657 Кбит/сек
Дата кодирования : UTC 2018-07-28 17:17:42
Дата пометки : UTC 2018-07-28 17:17:42
Программа кодирования : BandiMp4Muxer 1.0
Видео
Идентификатор : 1
Формат : AVC
Формат/Информация : Advanced Video Codec
Профиль формата : Baseline@L4
Настройки формата : 1 Ref Frames
Параметр CABAC формата : Нет
Параметр RefFrames формата : 1 кадр
Идентификатор кодека : avc1
Идентификатор кодека/Информация : Advanced Video Coding
Продолжительность : 55 м. 23 с.
Битрейт : 475 Кбит/сек
Ширина : 1832 пикселя
Высота : 1056 пикселей
Соотношение сторон : 1,735
Режим частоты кадров : Переменный
Частота кадров : 16,219 кадров/сек
Минимальная частота кадров : 0,968 кадр/сек
Максимальная частота кадров : 30,030 кадров/сек
Цветовое пространство : YUV
Субдискретизация насыщенности : 4:2:0
Битовая глубина : 8 бит
Тип развёртки : Прогрессивная
Бит/(Пиксели*Кадры) : 0.015
Размер потока : 188 Мбайт (72%)
Язык : English
Дата кодирования : UTC 2018-07-28 17:17:42
Дата пометки : UTC 2018-07-28 17:17:42
Аудио
Идентификатор : 2
Формат : AAC
Формат/Информация : Advanced Audio Codec
Профиль формата : LC
Идентификатор кодека : mp4a-40-2
Продолжительность : 55 м. 24 с.
Продолжительность оригинала : 55 м. 24 с.
Вид битрейта : Переменный
Битрейт : 177 Кбит/сек
Каналы : 2 канала
Расположение каналов : Front: L R
Частота : 48,0 КГц
Частота кадров : 46,875 кадров/сек (1024 SPF)
Метод сжатия : С потерями
Размер потока : 70,2 Мбайт (27%)
Размер потока оригинала : 70,2 Мбайт (27%)
Язык : English
Дата кодирования : UTC 2018-07-28 17:17:42
Дата пометки : UTC 2018-07-28 17:17:42
mdhd_Duration : 3324352

Дополнительная информация:

В раздаче имеются архивы! В них содержится дополнительные материалы.
Скриншоты:
Скачать .torrent

Для того, чтобы скачать торрент-файл

loftschool - React.js. Разработка веб-приложений (2018)

с нашего сайта, Вам необходимо Войти на сайт под своим логином! Если у Вас ещё нет логина, тогда Вам нужно сначала Зарегистрироваться!

Как скачивать? · Что такое торрент? · Рейтинг и ограничения

Показать сообщения:    
Ответить на тему

loftschool - React.js. Разработка веб-приложений (2018) скачать торрент (torrent), видеоуроки, тренинги, обучающее видео и видеокурсы

Текущее время: Сегодня 20:17

Часовой пояс: GMT + 4



Вы не можете начинать темы
Вы не можете отвечать на сообщения
Вы не можете редактировать свои сообщения
Вы не можете удалять свои сообщения
Вы не можете голосовать в опросах
Вы не можете прикреплять файлы к сообщениям
Вы не можете скачивать файлы