Advance club - Как выучить английский за 3 месяца (2018)

Ответить на тему
 
Автор Сообщение

Yulya ®

Advance club | Как выучить английский за 3 месяца (2018) WEBRip [H.264/720p-LQ]- Автор (режиссер): Advance club
Жанр: Обучение, Английский язык
Сайт автора: http://advance-club.ru/angliyskiy-za-3-mesyaca/
Описание: Во время обучения Вы:
  • бегло и грамотно заговорите на английском и поставите нейтральное произношение
  • гарантированно освоите грамматику своего уровня (чем ниже ваш уровень английского, тем больше уровней вы преодолеете);
  • значительно увеличите свой словарный запас
  • за время обучения вы без труда выучите более 3 000 новых слов
  • научитесь понимать фильмы и новости на слух и привыкнете к живому современному языку
Продолжительность: 06:50:34
Качество видео: WEBRip
Видео: AVC/H.264, 1280х720, ~820 Kbps
Аудио: AAC, 2 ch, 125-191

Mediainfo:

General
Format : MPEG-4
Format profile : Base Media / Version 2
Codec ID : mp42 (isom/mp42)
File size : 477 MiB
Duration : 2 h 6 min
Overall bit rate mode : Variable
Overall bit rate : 526 kb/s
Encoded date : UTC 2017-11-16 02:49:40
Tagged date : UTC 2017-11-16 02:49:40
gsst : 0
gstd : 7601586
Video
ID : 1
Format : AVC
Format/Info : Advanced Video Codec
Format profile : Main@L3.1
Format settings : CABAC / 3 Ref Frames
Format settings, CABAC : Yes
Format settings, ReFrames : 3 frames
Codec ID : avc1
Codec ID/Info : Advanced Video Coding
Duration : 2 h 6 min
Bit rate : 396 kb/s
Width : 1 280 pixels
Height : 720 pixels
Display aspect ratio : 16:9
Frame rate mode : Constant
Frame rate : 30.000 FPS
Color space : YUV
Chroma subsampling : 4:2:0
Bit depth : 8 bits
Scan type : Progressive
Bits/(Pixel*Frame) : 0.014
Stream size : 359 MiB (75%)
Title : ISO Media file produced by Google Inc. Created on: 11/15/2017.
Encoded date : UTC 2017-11-16 02:49:40
Tagged date : UTC 2017-11-16 02:49:40
Color range : Limited
Color primaries : BT.709
Transfer characteristics : BT.709
Matrix coefficients : BT.709
Codec configuration box : avcC
Audio
ID : 2
Format : AAC
Format/Info : Advanced Audio Codec
Format profile : LC
Codec ID : mp4a-40-2
Duration : 2 h 6 min
Bit rate mode : Variable
Bit rate : 126 kb/s
Channel(s) : 2 channels
Channel positions : Front: L R
Sampling rate : 44.1 kHz
Frame rate : 43.066 FPS (1024 SPF)
Compression mode : Lossy
Stream size : 114 MiB (24%)
Title : ISO Media file produced by Google Inc. Created on: 11/15/2017.
Encoded date : UTC 2017-11-16 02:49:40
Tagged date : UTC 2017-11-16 02:49:40
Скриншоты:
Скачать .torrent

Для того, чтобы скачать торрент-файл

Advance club - Как выучить английский за 3 месяца (2018)

с нашего сайта, Вам необходимо Войти на сайт под своим логином! Если у Вас ещё нет логина, тогда Вам нужно сначала Зарегистрироваться!

Как скачивать? · Что такое торрент? · Рейтинг и ограничения

Показать сообщения:    
Ответить на тему

Advance club - Как выучить английский за 3 месяца (2018) скачать торрент (torrent), видеоуроки, тренинги, обучающее видео и видеокурсы

Текущее время: Сегодня 18:52

Часовой пояс: GMT + 4



Вы не можете начинать темы
Вы не можете отвечать на сообщения
Вы не можете редактировать свои сообщения
Вы не можете удалять свои сообщения
Вы не можете голосовать в опросах
Вы не можете прикреплять файлы к сообщениям
Вы не можете скачивать файлы