Максим Соколов, Антон Вьюков - Webflow Мастер (2015)

Ответить на тему
 
Автор Сообщение

Yulya ®

-Максим Соколов, Антон Вьюков | Webflow Мастер (2015) PCRec [H.264/720p-LQ]- Автор (режиссер): Максим Соколов, Вьюков Антон
Жанр: Конструктор сайтов, Webflow
Продолжительность: 02:50:00
Качество видео: PCRec
Видеокодек: AVC
Битрейт видео: ~741 kb/s 30,00 FPS
Размер кадра: 1280 x 720
Аудиокодек: AAC
Битрейт аудио: 128 kb/s (CBR), 2 Ch, 44100 Hz
Описание:
Создавайте профессиональные, адаптивные сайты без знания кода! Webflow – конструктор сайтов для проектирования вебсайтов с нуля. Вы можете начать с чистого листа или использовать один из шаблонов.

Содержание:

Теория
Вводный урок. Обзор редактора
Практика
1 Урок
Регистрация на платформе. Обзор редактора.
Примечание: Для работы с сервисом использовать только браузеры Chrome или Safari
2 Урок
Обзор панели управления стилями. Публикация сайта и экспорт кода.
3 Урок
Разметка страницы на секции.
4 Урок
Настройка 1-ой секции. Часть 1.
5 Урок
Настройка 1-ой секции. Часть 2.
6 Урок
Настройка верхнего меню. Эффекты закрепления при скролинге.
7 Урок
Настройка плавающего указателя вниз
8 Урок
Настройка 2-ой секции.
9 Урок
Настройка 3,4,5,6 секций
10 Урок
Проверка работы. Дополнительные настройки секций.
11 Урок
Настройка формы заказа. Часть 1.
12 Урок
Настройка формы заказа. Часть 2.
13 Урок
Настройка секции контактов. Интеграция Яндекс Карты.
14 Урок
Настройка эффектов. Плавное появление сайта.
15 Урок
Настройка эффектов. Подпрыгивающий указатель вниз. Появление фото справа и слева.
16 Урок
Настройка эффектов. Появление фото с задержкой. Подпрыгивающий указатель вверх.
17 Урок
Настройка эффектов. Эффект переключения стилей верхнего меню.
18 Урок
Настройки стиля верхнего меню в режиме планшета/смартфона.
19 Урок
Настройка ссылок на странице.
20 Урок
Финальная настройка адаптивности дизайна под планшет и смартфон.
21 Урок
Обзор функций личного кабинета.
Бонусы
1 Бонус
Создание лайтбокса и интеграция формы обратной связи.
2 Бонус
Экспорт сайта с бесплатного аккаунта на любой свой хостинг со своим доменом.
3 Бонус
Перенос сайта на любой бесплатный аккаунт.
4 Бонус
Как активировать форму обратной связи на любом хостинге.

Mediainfo:

Код:
Общее
Полное имя                               : C:\WebFlow master
Формат                                   : MPEG-4
Профиль формата                          : Base Media
Идентификатор кодека                     : isom
Размер файла                             : 63,2 Мбайт
Продолжительность                        : 10 м.
Общий поток                              : 879 Кбит/сек
Программа кодирования                    : Lavf56.15.102
Видео
Идентификатор                            : 1
Формат                                   : AVC
Формат/Информация                        : Advanced Video Codec
Профиль формата                          : [url=mailto:High@L3.1]High@L3.1[/url]
Параметр CABAC формата                   : Да
Параметр ReFrames формата                : 4 кадра
Идентификатор кодека                     : avc1
Идентификатор кодека/Информация          : Advanced Video Coding
Продолжительность                        : 10 м.
Битрейт                                  : 741 Кбит/сек
Ширина                                   : 1280 пикселей
Высота                                   : 720 пикселей
Соотношение сторон                       : 16:9
Режим частоты кадров                     : Постоянный
Частота кадров                           : 30,000 кадров/сек
Цветовое пространство                    : YUV
Субдискретизация насыщенности            : 4:2:0
Битовая глубина                          : 8 бит
Тип развёртки                            : Прогрессивная
Бит/(Пиксели*Кадры)                      : 0.027
Размер потока                            : 53,4 Мбайт (84%)
Библиотека кодирования                   : x264 core 142 r2431 ac76440
Настройки программы                      : cabac=1 / ref=2 / deblock=1:0:0 / analyse=0x3:0x113 / me=hex / subme=6 / psy=1 / psy_rd=1.00:0.00 / mixed_ref=1 / me_range=16 / chroma_me=1 / trellis=0 / 8x8dct=1 / cqm=0 / deadzone=21,11 / fast_pskip=1 / chroma_qp_offset=-2 / threads=12 / lookahead_threads=2 / sliced_threads=0 / nr=0 / decimate=1 / interlaced=0 / bluray_compat=0 / constrained_intra=0 / bframes=3 / b_pyramid=2 / b_adapt=1 / b_bias=0 / direct=3 / weightb=1 / open_gop=0 / weightp=2 / keyint=250 / keyint_min=25 / scenecut=40 / intra_refresh=0 / rc_lookahead=40 / rc=2pass / mbtree=1 / bitrate=741 / ratetol=1.0 / qcomp=0.60 / qpmin=10 / qpmax=51 / qpstep=4 / cplxblur=20.0 / qblur=0.5 / ip_ratio=1.41 / aq=1:1.00
Аудио
Идентификатор                            : 2
Формат                                   : AAC
Формат/Информация                        : Advanced Audio Codec
Профиль формата                          : LC
Идентификатор кодека                     : 40
Продолжительность                        : 10 м.
Вид битрейта                             : Постоянный
Битрейт                                  : 128 Кбит/сек
Каналы                                   : 2 канала
Расположение каналов                     : Front: L R
Частота                                  : 44,1 КГц
Метод сжатия                             : С потерями
Размер потока                            : 9,21 Мбайт (15%)
Скриншоты:
Скачать .torrent

Для того, чтобы скачать торрент-файл

Максим Соколов, Антон Вьюков - Webflow Мастер (2015)

с нашего сайта, Вам необходимо Войти на сайт под своим логином! Если у Вас ещё нет логина, тогда Вам нужно сначала Зарегистрироваться!

Как скачивать? · Что такое торрент? · Рейтинг и ограничения

welopt

автору респект)

welopt

большое человеческое спасибо)

Digi

Не подскажите где найти курс "Мастер Webflow II"?
Спасибо за раздачу!
Показать сообщения:    
Ответить на тему

Максим Соколов, Антон Вьюков - Webflow Мастер (2015) скачать торрент (torrent), видеоуроки, тренинги, обучающее видео и видеокурсы

Текущее время: Сегодня 14:01

Часовой пояс: GMT + 4



Вы не можете начинать темы
Вы не можете отвечать на сообщения
Вы не можете редактировать свои сообщения
Вы не можете удалять свои сообщения
Вы не можете голосовать в опросах
Вы не можете прикреплять файлы к сообщениям
Вы не можете скачивать файлы