Давыдов Роман - Фреймворк Laravel (2018)

Ответить на тему
 
Автор Сообщение

admin ®

Давыдов Роман | Фреймворк Laravel (2018) PCRec [H.264/720p-LQ] - Автор (режиссер): Давыдов Роман
Жанр: Программирование, PHP, Laravel
Описание:
Фреймворк Laravel — это чистая и стильная основа для веб-разработки. Все больше крупных компаний таких как Яндекс, CarPrice, BelkaCar, LinkedIn используют его при создании собственных продуктов.
Laravel — универсальный инструмент для создания лендингов, блогов, чат-ботов, серверной части мобильных приложений, парсеров, полноценных интернет-магазинов. В вашем распоряжении гигабайты готовых библиотек под любую задачу.
Продолжительность: 15:09:10
Качество видео: PCRec
Видео: AVC/H.264, 1280x720, ~135-176 Kbps
Аудио: AAC, 2 ch, 125-128 Kbps

Mediainfo:

Общее
Полное имя : .\1.Вступление. Установка и обзор. Artisan\001 Вступление Установка и обзор Artisan.mp4
Формат : MPEG-4
Профиль формата : Base Media / Version 2
Идентификатор кодека : mp42 (isom/mp42)
Размер файла : 216 Мбайт
Продолжительность : 1 ч. 50 м.
Режим общего битрейта : Переменный
Общий поток : 272 Кбит/сек
Дата кодирования : UTC 2018-06-21 21:46:37
Дата пометки : UTC 2018-06-21 21:46:37
gsst : 0
gstd : 6646503
Видео
Идентификатор : 1
Формат : AVC
Формат/Информация : Advanced Video Codec
Профиль формата : Main@L3.1
Настройки формата : CABAC / 3 Ref Frames
Параметр CABAC формата : Да
Параметр RefFrames формата : 3 кадра
Идентификатор кодека : avc1
Идентификатор кодека/Информация : Advanced Video Coding
Продолжительность : 1 ч. 50 м.
Битрейт : 144 Кбит/сек
Ширина : 1280 пикселей
Высота : 720 пикселей
Соотношение сторон : 16:9
Режим частоты кадров : Постоянный
Частота кадров : 20,000 кадров/сек
Цветовое пространство : YUV
Субдискретизация насыщенности : 4:2:0
Битовая глубина : 8 бит
Тип развёртки : Прогрессивная
Бит/(Пиксели*Кадры) : 0.008
Размер потока : 114 Мбайт (53%)
Заголовок : ISO Media file produced by Google Inc. Created on: 06/21/2018.
Дата кодирования : UTC 2018-06-21 21:46:37
Дата пометки : UTC 2018-06-21 21:46:37
Цветовой диапазон : Limited
Основные цвета : BT.709
Характеристики трансфера : BT.709
Коэффициенты матрицы : BT.709
Аудио
Идентификатор : 2
Формат : AAC
Формат/Информация : Advanced Audio Codec
Профиль формата : LC
Идентификатор кодека : mp4a-40-2
Продолжительность : 1 ч. 50 м.
Продолжительность оригинала : 1 ч. 50 м.
Вид битрейта : Переменный
Битрейт : 126 Кбит/сек
Каналы : 2 канала
Расположение каналов : Front: L R
Частота : 44,1 КГц
Частота кадров : 43,066 кадра/сек (1024 SPF)
Метод сжатия : С потерями
Размер потока : 99,5 Мбайт (46%)
Размер потока оригинала : 99,5 Мбайт (46%)
Заголовок : ISO Media file produced by Google Inc. Created on: 06/21/2018.
Дата кодирования : UTC 2018-06-21 21:46:37
Дата пометки : UTC 2018-06-21 21:46:37
Скриншоты:
Скачать .torrent

Для того, чтобы скачать торрент-файл

Давыдов Роман - Фреймворк Laravel (2018)

с нашего сайта, Вам необходимо Войти на сайт под своим логином! Если у Вас ещё нет логина, тогда Вам нужно сначала Зарегистрироваться!

Как скачивать? · Что такое торрент? · Рейтинг и ограничения

Показать сообщения:    
Ответить на тему

Давыдов Роман - Фреймворк Laravel (2018) скачать торрент (torrent), видеоуроки, тренинги, обучающее видео и видеокурсы

Текущее время: Сегодня 08:46

Часовой пояс: GMT + 4



Вы не можете начинать темы
Вы не можете отвечать на сообщения
Вы не можете редактировать свои сообщения
Вы не можете удалять свои сообщения
Вы не можете голосовать в опросах
Вы не можете прикреплять файлы к сообщениям
Вы не можете скачивать файлы