ITVDN - HTML5 & CSS3 ADVANCED (2018)

Ответить на тему
 
Автор Сообщение

admin ®

ITVDN | HTML5 & CSS3 ADVANCED (2018) PCRec [H.264/720p-LQ] - Автор (режиссер): ITVDN
Производство: Патёха Сергей
Жанр: HTML5, CSS3, Верстка
Описание:
Курс состоит из 7 уроков, на которых учащиеся смогут ознакомиться с новыми функциями HTML5 & CSS3. Студенты рассмотрят возможность использования гибкой верстки, реализации анимации, использование хранилищ браузера и многопоточности, а также подключения препроцессора и сборщика для отображения кроссбраузерности веб-страницы на различных устройствах.
Продолжительность: 07:45:15
Качество видео: PCRec
Видео: AVC/H.264, 1280x720, ~295-411 Kbps
Аудио: AAC, 2 ch, 137 Kbps

Список уроков курса

Урок 1: Введение, микроданные и пользовательские данные. Геолокация
• Рассмотрение значения и применения микроданных в разметке.
• Добавление пользовательских данных и работа с ними.
• Возможность переноса элементов на странице.
• События переноса.
• Знакомство с Geolocation API.
• Методы для нахождения местоположения.
• Работа с объектом Coords.
• Применение Google Maps.
• Настройка обратного геокодирования.
Урок 2: Саnvas
• Введение в Canvas.
• Прорисовка фигур.
Заливка и очистка.
• Прорисовка текста.
• Использование прозрачности и шаблонов.
• Градиенты в Canvas.
• Рассмотрение примеров.
Урок 3: Хранение данных на стороне клиента. Audio, Video
• Знакомство с WebStorage..
• Сравнение WebStorage и Cookie.
• Знакомство с многопоточностью.
• WebWorker и AJAX.
• Настройка Audio на странице. Добавление пользовательских элементов управления.
• Настройка Video на странице. Добавление пользовательских элементов управления.
Урок 4: Принципы построения разметки, Flex, Grid, Шаблоны сайтов
• Знакомство с FlexBox model.
• Понятие осей Flex.
• Определение Grid разметки.
• Понятие величины fr.
• Жадность элементов, отступы.
• Ряды/колонки.
Урок 5: Анимации и градиенты
• Понятие переходов в CSS3.
• Виды переходов состояний.
• Трансформации.
• Трансформации в сочетании с переходами.
• Трансформации 3d.
• Анимации. Свойство Keyframes.
• Линейный градиент.
• Радиальный градиент.
• Повторяющиеся градиенты.
Урок 6: Основы SASS
• Понятие препроцессора.
• Синтаксис SASS.
• Знакомство с Node.js, npm, Gulp.
• Установка функций Gulp.
• Компиляция SCSS и SASS в CSS.
• Переменные.
• Миксины.
• Импорты.
• Наследования.
• Функции for,if,each,while.
Урок 7: Практика. Макет сайта

Mediainfo:

Общее
Полное имя : .\001_Введение, микроданные и пользовательские данные. Геолокация\001 Микроданные, геолокация.mp4
Формат : MPEG-4
Профиль формата : Base Media / Version 2
Идентификатор кодека : mp42 (mp42/mp41/isom/avc1)
Размер файла : 191 Мбайт
Продолжительность : 54 м. 0 с.
Режим общего битрейта : Переменный
Общий поток : 494 Кбит/сек
Дата кодирования : UTC 2018-07-30 11:43:33
Дата пометки : UTC 2018-07-30 11:43:33
Видео
Идентификатор : 1
Формат : AVC
Формат/Информация : Advanced Video Codec
Профиль формата : High@L3.2
Настройки формата : CABAC / 5 Ref Frames
Параметр CABAC формата : Да
Параметр RefFrames формата : 5 кадров
Идентификатор кодека : avc1
Идентификатор кодека/Информация : Advanced Video Coding
Продолжительность : 54 м. 0 с.
Битрейт : 352 Кбит/сек
Ширина : 1280 пикселей
Высота : 720 пикселей
Соотношение сторон : 16:9
Режим частоты кадров : Постоянный
Частота кадров : 30,000 кадров/сек
Цветовое пространство : YUV
Субдискретизация насыщенности : 4:2:0
Битовая глубина : 8 бит
Тип развёртки : Прогрессивная
Бит/(Пиксели*Кадры) : 0.013
Размер потока : 136 Мбайт (71%)
Библиотека кодирования : x264 core 155 r10 7d0ff22
Настройки программы : cabac=1 / ref=5 / deblock=1:0:0 / analyse=0x3:0x113 / me=hex / subme=8 / psy=1 / psy_rd=1.00:0.00 / mixed_ref=1 / me_range=16 / chroma_me=1 / trellis=2 / 8x8dct=1 / cqm=0 / deadzone=21,11 / fast_pskip=1 / chroma_qp_offset=-2 / threads=22 / lookahead_threads=3 / sliced_threads=0 / nr=0 / decimate=1 / interlaced=0 / bluray_compat=0 / stitchable=1 / constrained_intra=0 / bframes=3 / b_pyramid=2 / b_adapt=2 / b_bias=0 / direct=3 / weightb=1 / open_gop=0 / weightp=2 / keyint=infinite / keyint_min=30 / scenecut=40 / intra_refresh=0 / rc_lookahead=50 / rc=crf / mbtree=1 / crf=20.0 / qcomp=0.60 / qpmin=5 / qpmax=69 / qpstep=4 / vbv_maxrate=2750 / vbv_bufsize=7500 / crf_max=0.0 / nal_hrd=none / filler=0 / ip_ratio=1.40 / aq=1:1.00
Дата кодирования : UTC 2018-07-30 11:43:33
Дата пометки : UTC 2018-07-30 11:43:33
Цветовой диапазон : Limited
Основные цвета : BT.709
Характеристики трансфера : BT.709
Коэффициенты матрицы : BT.709
Аудио
Идентификатор : 2
Формат : AAC
Формат/Информация : Advanced Audio Codec
Профиль формата : LC
Идентификатор кодека : mp4a-40-2
Продолжительность : 54 м. 0 с.
Вид битрейта : Переменный
Битрейт : 137 Кбит/сек
Каналы : 2 канала
Расположение каналов : Front: L R
Частота : 48,0 КГц
Частота кадров : 46,875 кадров/сек (1024 SPF)
Метод сжатия : С потерями
Размер потока : 52,9 Мбайт (28%)
Дата кодирования : UTC 2018-07-30 11:43:33
Дата пометки : UTC 2018-07-30 11:43:33
Скриншоты:
Скачать .torrent

Для того, чтобы скачать торрент-файл

ITVDN - HTML5 & CSS3 ADVANCED (2018)

с нашего сайта, Вам необходимо Войти на сайт под своим логином! Если у Вас ещё нет логина, тогда Вам нужно сначала Зарегистрироваться!

Как скачивать? · Что такое торрент? · Рейтинг и ограничения

Показать сообщения:    
Ответить на тему

ITVDN - HTML5 & CSS3 ADVANCED (2018) скачать торрент (torrent), видеоуроки, тренинги, обучающее видео и видеокурсы

Текущее время: Сегодня 09:40

Часовой пояс: GMT + 4



Вы не можете начинать темы
Вы не можете отвечать на сообщения
Вы не можете редактировать свои сообщения
Вы не можете удалять свои сообщения
Вы не можете голосовать в опросах
Вы не можете прикреплять файлы к сообщениям
Вы не можете скачивать файлы