Евгений Некоз - Вебинар "Чат-боты для Amazon и не только" (2018)

Ответить на тему
 
Автор Сообщение

admin ®

Евгений Некоз | Вебинар "Чат-боты для Amazon и не только" (2018) WEBRip [H.264/720p-LQ] [EN] - Автор (режиссер): Евгений Некоз
Жанр: Вебинары
Описание:
Вебинар максимально подойдет если Вы:
1. В поиске альтернативных каналов для сбора отзывов на ваши товары
2. Хотите запускать новые товары и не знаете как собрать первых покупателей и первые отзывы
3. Желаете выстроить автоматизированные воронки для работы со своими клиентами
4. Хотите научиться использовать чат-боты не только для Amazon, но и для других своих бизнесов или автоматизации процессов
Продолжительность: 08:37:17
Качество видео: WEBRip
Перевод: Отсутствует
Язык: Английский
Видео: AVC/H.264, 1280х720, ~550 kbps
Аудио: AAC, 2 ch, 96-125 kbp

Mediainfo:

General
Format : MPEG-4
Format profile : Base Media / Version 2
Codec ID : mp42
File size : 152 MiB
Duration : 27mn 9s
Overall bit rate mode : Variable
Overall bit rate : 781 Kbps
Encoded date : UTC 2018-03-06 17:56:19
Tagged date : UTC 2018-03-06 17:56:19
gsst : 0
gstd : 1629251
Video
ID : 1
Format : AVC
Format/Info : Advanced Video Codec
Format profile : Main@L3.1
Format settings, CABAC : Yes
Format settings, ReFrames : 3 frames
Codec ID : avc1
Codec ID/Info : Advanced Video Coding
Duration : 27mn 9s
Bit rate mode : Variable
Bit rate : 683 Kbps
Width : 1 280 pixels
Height : 720 pixels
Display aspect ratio : 16:9
Frame rate mode : Constant
Frame rate : 29.970 fps
Color space : YUV
Chroma subsampling : 4:2:0
Bit depth : 8 bits
Scan type : Progressive
Bits/(Pixel*Frame) : 0.025
Stream size : 133 MiB (88%)
Encoded date : UTC 2018-03-06 17:56:19
Tagged date : UTC 2018-03-06 17:56:19
Color primaries : BT.709-5, BT.1361, IEC 61966-2-4, SMPTE RP177
Transfer characteristics : BT.709-5, BT.1361
Matrix coefficients : BT.709-5, BT.1361, IEC 61966-2-4 709, SMPTE RP177
Audio
ID : 2
Format : AAC
Format/Info : Advanced Audio Codec
Format profile : LC
Codec ID : 40
Duration : 27mn 9s
Bit rate mode : Variable
Bit rate : 93.6 Kbps
Channel(s) : 2 channel
Channel positions : Front: C
Sampling rate : 44.1 KHz
Compression mode : Lossy
Delay relative to video : -33ms
Stream size : 18.2 MiB (12%)
Encoded date : UTC 2018-03-06 17:56:19
Tagged date : UTC 2018-03-06 17:56:19

Дополнительная информация

После вебинара Вы узнаете
  • Для чего нужны чат-боты
  • Какие задачи можно решать с их помощью (и не только сбор ревью)
  • Ограничения и недостатки, о которых молчат
  • Основные платформы, их плюсы и минусы
  • Варианты использования чат-ботов для Амазона
  • Примеры построения чат-бота на живом аккаунте с нуля и до рабочего прототипа
  • Автоматизацию и интеграцию с другими сервисами
  • Как проводить тесты
  • Как оптимизировать чат-бота
Скриншоты:
Скачать .torrent

Для того, чтобы скачать торрент-файл

Евгений Некоз - Вебинар "Чат-боты для Amazon и не только" (2018)

с нашего сайта, Вам необходимо Войти на сайт под своим логином! Если у Вас ещё нет логина, тогда Вам нужно сначала Зарегистрироваться!

Как скачивать? · Что такое торрент? · Рейтинг и ограничения

Показать сообщения:    
Ответить на тему

Евгений Некоз - Вебинар "Чат-боты для Amazon и не только" (2018) скачать торрент (torrent), видеоуроки, тренинги, обучающее видео и видеокурсы

Текущее время: Сегодня 23:50

Часовой пояс: GMT + 4



Вы не можете начинать темы
Вы не можете отвечать на сообщения
Вы не можете редактировать свои сообщения
Вы не можете удалять свои сообщения
Вы не можете голосовать в опросах
Вы не можете прикреплять файлы к сообщениям
Вы не можете скачивать файлы