Лариса Клепачева - Мастер по трикотажу (2014)

Ответить на тему
 
Автор Сообщение

admin ®

Лариса Клепачева | Мастер по трикотажу (2014) PCRec - Автор (режиссер): Лариса Клепачева
Жанр: Видеокурс
Доп. материалы: Присутствуют
Описание:
Как самостоятельно кроить и шить из трикотажа качественные изделия, обходясь без специального оборудования?
Из материалов вы узнаете:
-Как правильно раскраивать трикотаж, чтобы он не распускался, не перекашивался и не вытягивался
-Какие нитки и иглы нужны для шитья трикотажных изделий
-Как выбирать модели, выкройки, методики построения и технологию обработки в зависимости от свойств трикотажа
-Какие строчки можно использовать для шитья изделий из трикотажа и как из всего многообразия машинных строчек выбрать самые подходящие
Продолжительность: 07:54:27
Качество видео: PCRec
Видео: WMV2, 1484x712, ~72 Kbps
Аудио: WMA, 1 ch, 48 Kbps

Mediainfo:

General
Complete name : D:\Торренты\Мастер по трикотажу\1\1_Видеозапись первого дня тренинга «Выкройка – основа трикотажного платья».wmv
Format : Windows Media
File size : 85.7 MiB
Duration : 1 h 35 min
Overall bit rate mode : Variable
Overall bit rate : 125 kb/s
Maximum Overall bit rate : 392 kb/s
Encoded date : UTC 2013-12-13 16:11:15.342
Video
ID : 2
Format : VC-1
Format profile : MP@HL
Codec ID : WMV3
Codec ID/Info : Windows Media Video 9
Codec ID/Hint : WMV3
Description of the codec : Windows Media Video 9
Duration : 1 h 35 min
Bit rate mode : Variable
Bit rate : 72.7 kb/s
Width : 1 484 pixels
Height : 712 pixels
Display aspect ratio : 2.084
Frame rate : 10.000 FPS
Color space : YUV
Chroma subsampling : 4:2:0
Bit depth : 8 bits
Scan type : Progressive
Compression mode : Lossy
Bits/(Pixel*Frame) : 0.007
Stream size : 49.9 MiB (58%)
Language : English (United States)
Audio
ID : 1
Format : WMA
Format version : Version 2
Codec ID : 161
Codec ID/Info : Windows Media Audio
Description of the codec : Windows Media Audio 9.2 - 48 kbps, 44 kHz, mono 1-pass CBR
Duration : 1 h 35 min
Bit rate mode : Constant
Bit rate : 48.0 kb/s
Channel(s) : 1 channel
Sampling rate : 44.1 kHz
Bit depth : 16 bits
Stream size : 33.0 MiB (38%)
Language : English (United States)

Описание далее:

-Какие прибавки нужны для трикотажа
-Можно ли скорректировать и получить выкройку без нагрудной вытачки
-Что делать, чтобы при шитье трикотажное полотно не растягивалось и не получалось «гармошкой»?
-Какими положительными свойствами обладает трикотаж, и как использовать эти свойства грамотно и только на пользу?
-Какими отрицательными свойствами обладает трикотаж, и как уменьшить или исключить их влияние на качество шитья?
-Можно ли шить из трикотажа, не имея оверлока?
-Как правильно выбрать двойную иглу, какие правила соблюдать при шитье двойной иглой?
-Как швы трикотажного изделия нуждаются в укреплении, и как укреплять эти швы?
-Как избежать растянутости и «волнистости» швов?
-Как правильно выполнять влажно-тепловую обработку при шитье из трикотажных полотен?
-Как правильно раскраивать трикотажные полотна?
-Как красиво обработать края деталей из трикотажа?
-Какие клеевые использовать при работе с трикотажем?
-Как правильно соединять трикотаж с другими тканями или другими трикотажными полотнами?
-Какая подкладка может использоваться для трикотажных изделий?
-Как лучше сметывать трикотаж для примерки, чтобы он не "съезжал" и не деформировался?
-Как избавиться от плечевых вытачек или вытачек на талии без ущерба для качества?
-и многого другого

Дополнительная информация:

В состав пакета «Мастер» вошли следующие материалы:
-Видеозапись тренинга "Выкройка - основа трикотажного платья"
-Электронная книга "Выкройка - основа трикотажного платья" (формат PDF)
-Видео-урок "Растяжимость трикотажных полотен"
-Электронная книга "Определение растяжимости трикотажных полотен"(формат PDF)
-Электронная книга "Конструирование плечевого изделия из трикотажа. Часть 1 Лиф" (формат PDF)
-Электронная книга "Конструирование плечевого изделия из трикотажа. Часть 1 Рукав" (формат PDF)
-Электронная книга "Как избавиться от нагрудной вытачки" (формат PDF)
-Электронная книга "Перевод нагрудной вытачки к боковому шву" (формат PDF)
-Видеозапись 2-х занятий вебинара "Как шить из трикотажа"
-Комплект видео-уроков "Лапки, облегчающие работу с трикотажем"
-Электронная книга "Все об иглах для бытовых швейных машин"(формат PDF)
-Видеозапись вебинара "Шитье двойной иглой"
Скриншоты:
Скачать .torrent

Для того, чтобы скачать торрент-файл

Лариса Клепачева - Мастер по трикотажу (2014)

с нашего сайта, Вам необходимо Войти на сайт под своим логином! Если у Вас ещё нет логина, тогда Вам нужно сначала Зарегистрироваться!

Как скачивать? · Что такое торрент? · Рейтинг и ограничения

Показать сообщения:    
Ответить на тему

Лариса Клепачева - Мастер по трикотажу (2014) скачать торрент (torrent), видеоуроки, тренинги, обучающее видео и видеокурсы

Текущее время: Сегодня 02:34

Часовой пояс: GMT + 4



Вы не можете начинать темы
Вы не можете отвечать на сообщения
Вы не можете редактировать свои сообщения
Вы не можете удалять свои сообщения
Вы не можете голосовать в опросах
Вы не можете прикреплять файлы к сообщениям
Вы не можете скачивать файлы