Джейми Оливер - Хрустящее Рождество Джейми Оливера (2014)

Ответить на тему
 
Автор Сообщение

admin ®

Джейми Оливер | Хрустящее Рождество Джейми Оливера (2014) HDTV [H.264/1080p-LQ] - Автор (режиссер): Джейми Оливер
Жанр: Кулинария
Описание:
Рождество - это не только большой праздник, это ещё и волшебные дни до и после него: большие изысканные обеды, сезонные торжества и уютные сборища с друзьями и семьёй. Это время, когда нужно баловать себя особенной едой
Продолжительность: 0:46:43
Качество видео: HDTV
Видео: AVC/H.264, 1920x1080, ~7969 Kbps
Аудио 1: MP2, 2 ch, 160 Kbps (Русский)
Аудио 2: MP2, 2 ch, 160 Kbps (Английский)

Mediainfo:

Общее
Идентификатор : 1 (0x1)
Полное имя : E:\Кулинария\[Джейми Оливер]\Jamie's Cracking Christmas HDTV.ts
Формат : MPEG-TS
Размер файла : 2,60 Гбайт
Продолжительность : 46 м. 43 с.
Режим общего битрейта : Переменный
Общий поток : 7969 Кбит/сек
Видео
Идентификатор : 141 (0x8D)
Идентификатор меню : 13002 (0x32CA)
Формат : AVC
Формат/Информация : Advanced Video Codec
Профиль формата : Main@L4
Настройки формата : CABAC / 4 Ref Frames
Параметр CABAC формата : Да
Параметр RefFrames формата : 4 кадра
Идентификатор кодека : 27
Продолжительность : 46 м. 43 с.
Битрейт : 7252 Кбит/сек
Ширина : 1920 пикселей
Высота : 1080 пикселей
Соотношение сторон : 16:9
Частота кадров : 25,000 кадров/сек
Стандарт вещания : Component
Цветовое пространство : YUV
Субдискретизация насыщенности : 4:2:0
Битовая глубина : 8 бит
Тип развёртки : MBAFF
Метод сохранения типа развёртки : Чередующиеся поля
Порядок развёртки : Верхнее поле первое
Бит/(Пиксели*Кадры) : 0.140
Размер потока : 2,37 Гбайт (91%)
Цветовой диапазон : Limited
Основные цвета : BT.709
Характеристики трансфера : BT.709
Коэффициенты матрицы : BT.709
Аудио #1
Идентификатор : 144 (0x90)
Идентификатор меню : 13002 (0x32CA)
Формат : MPEG Audio
Версия формата : Version 1
Профиль формата : Layer 2
Настройки формата : Joint stereo
Идентификатор кодека : 3
Продолжительность : 46 м. 43 с.
Вид битрейта : Постоянный
Битрейт : 160 Кбит/сек
Каналы : 2 канала
Частота : 48,0 КГц
Частота кадров : 41,667 кадра/сек (1152 SPF)
Метод сжатия : С потерями
Задержка видео : -80 мс.
Размер потока : 53,5 Мбайт (2%)
Язык : Russian
Аудио #2
Идентификатор : 145 (0x91)
Идентификатор меню : 13002 (0x32CA)
Формат : MPEG Audio
Версия формата : Version 1
Профиль формата : Layer 2
Настройки формата : Joint stereo
Идентификатор кодека : 3
Продолжительность : 46 м. 43 с.
Вид битрейта : Постоянный
Битрейт : 160 Кбит/сек
Каналы : 2 канала
Частота : 48,0 КГц
Частота кадров : 41,667 кадра/сек (1152 SPF)
Метод сжатия : С потерями
Задержка видео : -80 мс.
Размер потока : 53,5 Мбайт (2%)
Язык : English
Скриншоты:
Скачать .torrent

Для того, чтобы скачать торрент-файл

Джейми Оливер - Хрустящее Рождество Джейми Оливера (2014)

с нашего сайта, Вам необходимо Войти на сайт под своим логином! Если у Вас ещё нет логина, тогда Вам нужно сначала Зарегистрироваться!

Как скачивать? · Что такое торрент? · Рейтинг и ограничения

Показать сообщения:    
Ответить на тему

Джейми Оливер - Хрустящее Рождество Джейми Оливера (2014) скачать торрент (torrent), видеоуроки, тренинги, обучающее видео и видеокурсы

Текущее время: Сегодня 04:44

Часовой пояс: GMT + 4



Вы не можете начинать темы
Вы не можете отвечать на сообщения
Вы не можете редактировать свои сообщения
Вы не можете удалять свои сообщения
Вы не можете голосовать в опросах
Вы не можете прикреплять файлы к сообщениям
Вы не можете скачивать файлы