PC-Expert - Видеокурс по ремонту ноутбуков (2016)

Ответить на тему
 
Автор Сообщение

admin ®

PC-Expert | Видеокурс по ремонту ноутбуков (2016) CamRip [H.264/1080p-LQ]- Автор (режиссер): PC-Expert
Жанр: Видеокурс
Описание:
Видеокурс по ремонту ноутбуков от PC-Expert
Продолжительность: 02:04:55
Качество видео: CamRip
Видео: AVC/H.264, 1920x1080, ~1335 Kbps
Аудио: AAC, 2 ch, 126 Kbps

Mediainfo:

General
Complete name : D:\Торренты\Видеокурс по ремонту ноутбуков от PC Expert. Full-HD.mp4
Format : MPEG-4
Format profile : Base Media
Codec ID : isom (isom/iso2/avc1/mp41)
File size : 1.28 GiB
Duration : 2 h 4 min
Overall bit rate : 1 469 kb/s
Writing application : Lavf57.25.100
Video
ID : 1
Format : AVC
Format/Info : Advanced Video Codec
Format profile : High@L4
Format settings : CABAC / 3 Ref Frames
Format settings, CABAC : Yes
Format settings, ReFrames : 3 frames
Codec ID : avc1
Codec ID/Info : Advanced Video Coding
Duration : 2 h 4 min
Bit rate : 1 336 kb/s
Width : 1 920 pixels
Height : 1 080 pixels
Display aspect ratio : 16:9
Frame rate mode : Constant
Frame rate : 30.000 FPS
Color space : YUV
Chroma subsampling : 4:2:0
Bit depth : 8 bits
Scan type : Progressive
Bits/(Pixel*Frame) : 0.021
Stream size : 1.17 GiB (91%)
Color range : Limited
Color primaries : BT.709
Transfer characteristics : BT.709
Matrix coefficients : BT.709
Audio
ID : 2
Format : AAC
Format/Info : Advanced Audio Codec
Format profile : LC
Codec ID : mp4a-40-2
Duration : 2 h 4 min
Bit rate mode : Constant
Bit rate : 126 kb/s
Channel(s) : 2 channels
Channel positions : Front: L R
Sampling rate : 44.1 kHz
Frame rate : 43.066 FPS (1024 SPF)
Compression mode : Lossy
Stream size : 112 MiB (9%)
Default : Yes
Alternate group : 1

Содержание:

1) Оборудование, необходимое для ремонта ноутбуков
2) Разбор ноутбука, визуальный осмотр и определение платформы для поиска схем и прошивок
3) Основные элементы платы, их назначение, проверка и подбор аналогов
4) Принцип работы ШИМ-контроллеров
5) Ремонт блоков питания ноутбуков
6) Как происходит заряд батареи или для чего еще нужен чарджер
7) Откуда берутся и как формируются дежурные напряжения
8) Как происходит запуск ноутбука или для чего нужен мультиконтроллер
9) Пост-карты и пост-коды
10) Биос. Прошивка и редактирование
11) Пайка. Хитрости и секреты
12) Все о BGA
Скриншоты:

Дополнительные скриншоты:

Скачать .torrent

Для того, чтобы скачать торрент-файл

PC-Expert - Видеокурс по ремонту ноутбуков (2016)

с нашего сайта, Вам необходимо Войти на сайт под своим логином! Если у Вас ещё нет логина, тогда Вам нужно сначала Зарегистрироваться!

Как скачивать? · Что такое торрент? · Рейтинг и ограничения

Показать сообщения:    
Ответить на тему

PC-Expert - Видеокурс по ремонту ноутбуков (2016) скачать торрент (torrent), видеоуроки, тренинги, обучающее видео и видеокурсы

Текущее время: Сегодня 07:04

Часовой пояс: GMT + 4



Вы не можете начинать темы
Вы не можете отвечать на сообщения
Вы не можете редактировать свои сообщения
Вы не можете удалять свои сообщения
Вы не можете голосовать в опросах
Вы не можете прикреплять файлы к сообщениям
Вы не можете скачивать файлы