Александр Виноградов - Видеоурок по естественной ретуши (2015)

Ответить на тему
 
Автор Сообщение

Yulya ®

Александр Виноградов | Видеоурок по естественной ретуши (2015) PCRec - Автор (режиссер): Александр Виноградов
Жанр: Обработка фото
Описание:
Вы узнаете как получать чистый красивый цвет, как быстро делать качественную максимально натуральную ретушь, не превращая модель в пластмассовую мертвую куклу, как быстро увеличить объем на двухмерной картинке.
Продолжительность: 00:47:23
Качество видео: PCRec
Видео: AVC/H.264, 1920х1080, ~3675 Kbps
Аудио: AAC, 2 ch, 3791 Kbps

Mediainfo:

Формат                                   : MPEG-4
Профиль формата : Base Media / Version 2
Идентификатор кодека : mp42 (mp41/mp42/isom)
Размер файла : 407 Мбайт
Продолжительность : 14 м. 59 с.
Режим общего битрейта : Переменный
Общий поток : 3791 Кбит/сек
Дата кодирования : UTC 2016-01-11 16:06:15
Дата пометки : UTC 2016-01-11 16:21:43
Видео
Идентификатор : 1
Формат : AVC
Формат/Информация : Advanced Video Codec
Профиль формата : Baseline@L4.1
Настройки формата : 2 Ref Frames
Параметр CABAC формата : Нет
Параметр ReFrames формата : 2 кадра
Параметр GOP формата : M=1, N=30
Идентификатор кодека : avc1
Идентификатор кодека/Информация : Advanced Video Coding
Продолжительность : 14 м. 59 с.
Вид битрейта : Переменный
Битрейт : 3675 Кбит/сек
Максимальный битрейт : 768 Кбит/сек
Ширина : 1920 пикселей
Высота : 1080 пикселей
Соотношение сторон : 16:9
Режим частоты кадров : Постоянный
Частота кадров : 30,000 кадров/сек
Частота кадров в оригинале : 25,000 кадров/сек
Цветовое пространство : YUV
Субдискретизация насыщенности : 4:2:0
Битовая глубина : 8 бит
Тип развёртки : Прогрессивная
Бит/(Пиксели*Кадры) : 0.059
Размер потока : 394 Мбайт (97%)
Заголовок : Core Media Video
Дата кодирования : UTC 2016-01-11 16:06:16
Дата пометки : UTC 2016-01-11 16:21:43
Аудио
Идентификатор : 2
Формат : AAC
Формат/Информация : Advanced Audio Codec
Профиль формата : LC
Идентификатор кодека : mp4a-40-2
Продолжительность : 14 м. 59 с.
Продолжительность оригинала : 14 м. 59 с.
Вид битрейта : Постоянный
Битрейт : 113 Кбит/сек
Номинальный битрейт : 128 Кбит/сек
Каналы : 2 канала
Расположение каналов : Front: L R
Частота : 44,1 КГц
Частота кадров : 43,066 кадра/сек (1024 SPF)
Метод сжатия : С потерями
Размер потока : 12,2 Мбайт (3%)
Размер потока оригинала : 12,2 Мбайт (3%)
Заголовок : Core Media Audio
Дата кодирования : UTC 2016-01-11 16:06:16
Дата пометки : UTC 2016-01-11 16:21:43
Скриншоты:
Скачать .torrent

Для того, чтобы скачать торрент-файл

Александр Виноградов - Видеоурок по естественной ретуши (2015)

с нашего сайта, Вам необходимо Войти на сайт под своим логином! Если у Вас ещё нет логина, тогда Вам нужно сначала Зарегистрироваться!

Как скачивать? · Что такое торрент? · Рейтинг и ограничения

Показать сообщения:    
Ответить на тему

Александр Виноградов - Видеоурок по естественной ретуши (2015) скачать торрент (torrent), видеоуроки, тренинги, обучающее видео и видеокурсы

Текущее время: Сегодня 00:13

Часовой пояс: GMT + 4



Вы не можете начинать темы
Вы не можете отвечать на сообщения
Вы не можете редактировать свои сообщения
Вы не можете удалять свои сообщения
Вы не можете голосовать в опросах
Вы не можете прикреплять файлы к сообщениям
Вы не можете скачивать файлы