Специалист - Профессионал - разработчик под Android (2016)

Ответить на тему
 
Автор Сообщение

Yulya ®

Специалист | Профессионал - разработчик под Android (2016) PCRec [H.264] - Автор (режиссер): Специалист
Жанр: Программирование, Android, Java
Описание:
Наши эксперты разработали для Вас комплексную программу подготовки «Профессионал-разработчик под Android». Пройдя обучение по комплексной программе, Вы получите все необходимые знания и навыки для успешной разработки мобильных приложений под Android. Программа составлена с учетом наиболее распространенных требований работодателей к сотрудникам. Пройдя обучение по комплексной программе, Вы станете специалистом высокого уровня и сможете уверенно претендовать на хорошую должность и высокую заработную плату!
Продолжительность: 52:54:07
Качество видео: PCRec
Видео: AVC/H.264, 1024x768-1280x1024, ~161-201 Kbps
Аудио: AAC, 2 ch, 253 Kbps

Mediainfo:

Общее
Полное имя : .\Уровень 1\android1_day2.mp4
Формат : MPEG-4
Профиль формата : Base Media / Version 2
Идентификатор кодека : mp42 (isom/mp42)
Размер файла : 1,02 Гбайт
Продолжительность : 5 ч. 44 м.
Режим общего битрейта : Переменный
Общий поток : 425 Кбит/сек
Дата кодирования : UTC 2016-04-17 13:00:23
Дата пометки : UTC 2016-04-17 13:00:23
Видео
Идентификатор : 1
Формат : AVC
Формат/Информация : Advanced Video Codec
Профиль формата : Main@L3.1
Настройки формата : CABAC / 3 Ref Frames
Параметр CABAC формата : Да
Параметр RefFrames формата : 3 кадра
Идентификатор кодека : avc1
Идентификатор кодека/Информация : Advanced Video Coding
Продолжительность : 5 ч. 44 м.
Битрейт : 169 Кбит/сек
Ширина : 1024 пикселя
Высота : 768 пикселей
Соотношение сторон : 4:3
Режим частоты кадров : Постоянный
Частота кадров : 30,000 кадров/сек
Стандарт вещания : NTSC
Цветовое пространство : YUV
Субдискретизация насыщенности : 4:2:0
Битовая глубина : 8 бит
Тип развёртки : Прогрессивная
Бит/(Пиксели*Кадры) : 0.007
Размер потока : 415 Мбайт (40%)
Язык : English
Дата кодирования : UTC 2016-04-17 13:00:23
Дата пометки : UTC 2016-04-17 13:00:23
Цветовой диапазон : Limited
Аудио
Идентификатор : 2
Формат : AAC
Формат/Информация : Advanced Audio Codec
Профиль формата : LC
Идентификатор кодека : mp4a-40-2
Продолжительность : 5 ч. 44 м.
Продолжительность оригинала : 5 ч. 44 м.
Вид битрейта : Переменный
Битрейт : 254 Кбит/сек
Максимальный битрейт : 424 Кбит/сек
Каналы : 2 канала
Расположение каналов : Front: L R
Частота : 44,1 КГц
Частота кадров : 43,066 кадра/сек (1024 SPF)
Метод сжатия : С потерями
Размер потока : 624 Мбайт (60%)
Размер потока оригинала : 624 Мбайт (60%)
Язык : English
Дата кодирования : UTC 2016-04-17 13:00:23
Дата пометки : UTC 2016-04-17 13:00:23
Общее
Полное имя : .\Уровень 1\android1_day1.mp4
Формат : MPEG-4
Профиль формата : Base Media / Version 2
Идентификатор кодека : mp42 (isom/mp42)
Размер файла : 864 Мбайт
Продолжительность : 4 ч. 43 м.
Режим общего битрейта : Переменный
Общий поток : 427 Кбит/сек
Дата кодирования : UTC 2016-04-17 08:01:01
Дата пометки : UTC 2016-04-17 08:01:01
Видео
Идентификатор : 1
Формат : AVC
Формат/Информация : Advanced Video Codec
Профиль формата : Main@L3.2
Настройки формата : CABAC / 3 Ref Frames
Параметр CABAC формата : Да
Параметр RefFrames формата : 3 кадра
Идентификатор кодека : avc1
Идентификатор кодека/Информация : Advanced Video Coding
Продолжительность : 4 ч. 43 м.
Продолжительность оригинала : 4 ч. 43 м.
Битрейт : 170 Кбит/сек
Ширина : 1280 пикселей
Высота : 1024 пикселя
Соотношение сторон : 5:4
Режим частоты кадров : Постоянный
Частота кадров : 30,000 кадров/сек
Стандарт вещания : NTSC
Цветовое пространство : YUV
Субдискретизация насыщенности : 4:2:0
Битовая глубина : 8 бит
Тип развёртки : Прогрессивная
Бит/(Пиксели*Кадры) : 0.004
Размер потока : 345 Мбайт (40%)
Размер потока оригинала : 345 Мбайт (40%)
Язык : English
Дата кодирования : UTC 2016-04-17 08:01:01
Дата пометки : UTC 2016-04-17 08:01:01
Цветовой диапазон : Limited
Аудио
Идентификатор : 2
Формат : AAC
Формат/Информация : Advanced Audio Codec
Профиль формата : LC
Идентификатор кодека : mp4a-40-2
Продолжительность : 4 ч. 43 м.
Вид битрейта : Переменный
Битрейт : 254 Кбит/сек
Максимальный битрейт : 394 Кбит/сек
Каналы : 2 канала
Расположение каналов : Front: L R
Частота : 44,1 КГц
Частота кадров : 43,066 кадра/сек (1024 SPF)
Метод сжатия : С потерями
Размер потока : 514 Мбайт (59%)
Язык : English
Дата кодирования : UTC 2016-04-17 08:01:01
Дата пометки : UTC 2016-04-17 08:01:01

Содержание:

Разработка мобильных приложений под Android. Уровень 1
Первый уровень даст Вам общее знание об архитектуре операционной системы Android, знакомство со средой разработки Android Studio, знание основных паттернов разработки приложений под Android. А главное – возможность создавать приложения, не требующие взаимодействия с внешним миром (через сеть, камеру и другие сенсоры).
Разработка мобильных приложений под Android. Уровень 2
Окончив данный курс, Вы научитесь создавать эффектные мультимедийные приложения и виджеты для смартфонов и планшетов. Сможете продуктивно использовать аппаратные и программные возможности платформы. Будете писать приложения, непрерывно поддерживающие связь с сервером, обрабатывающие данные сенсоров телефонов. Научитесь управлять состоянием телефона и беспроводными соединениями. Каждый блок программы закрепляется отработкой практических задач, с которыми Вы реально столкнётесь в работе.
Пройдя обучение в области разработки мобильных приложений для платформы Android, Вы сможете найти свою нишу на динамичном рынке мобильных приложений.
Скриншоты:
Скачать .torrent

Для того, чтобы скачать торрент-файл

Специалист - Профессионал - разработчик под Android (2016)

с нашего сайта, Вам необходимо Войти на сайт под своим логином! Если у Вас ещё нет логина, тогда Вам нужно сначала Зарегистрироваться!

Как скачивать? · Что такое торрент? · Рейтинг и ограничения

Показать сообщения:    
Ответить на тему

Специалист - Профессионал - разработчик под Android (2016) скачать торрент (torrent), видеоуроки, тренинги, обучающее видео и видеокурсы

Текущее время: Сегодня 09:19

Часовой пояс: GMT + 4



Вы не можете начинать темы
Вы не можете отвечать на сообщения
Вы не можете редактировать свои сообщения
Вы не можете удалять свои сообщения
Вы не можете голосовать в опросах
Вы не можете прикреплять файлы к сообщениям
Вы не можете скачивать файлы