Lynda.com - Working with Data on the Web (2013) [RU]

Ответить на тему
 
Автор Сообщение

Yulya ®

Lynda.com | Working with Data on the Web (2013) PCRec [H.264/720p-LQ] - Автор (режиссер): Joseph Lowery
Производство: Lynda.com
Жанр: Программирование
Описание:
Работа с данными в Вебе.
Часто требуется вывести простые данные, не используя реляционную СУБД, такую как MySQL. В этом курсе представлены веб-технологии, позволяющие дизайнерам и разработчикам легко хранить, получать и отображать данные в Интернете.
Продолжительность: 02:21:23
Качество видео: PCRec
Перевод: Дублированный (перевод TCPIP, озвучка VoiceOver)
Видео: AVC/H.264, 1280х720, ~22-678 Kbps
Аудио: AAC, 1 ch, 96 Kbps - Русский, дублированный (TCPIP, VoiceOver)

Mediainfo:

General
Complete name : 1_01. Обзор технологий.mp4
Format : MPEG-4
Format profile : Base Media
Codec ID : isom
File size : 6.50 MiB
Duration : 5mn 28s
Overall bit rate : 166 Kbps
Video
ID : 1
Format : AVC
Format/Info : Advanced Video Codec
Format profile : High@L3.1
Format settings, CABAC : Yes
Format settings, ReFrames : 4 frames
Codec ID : avc1
Codec ID/Info : Advanced Video Coding
Duration : 5mn 28s
Bit rate : 65.9 Kbps
Width : 1 280 pixels
Height : 720 pixels
Display aspect ratio : 16:9
Frame rate mode : Constant
Frame rate : 15.000 fps
Color space : YUV
Chroma subsampling : 4:2:0
Bit depth : 8 bits
Scan type : Progressive
Bits/(Pixel*Frame) : 0.005
Stream size : 2.58 MiB (40%)
Writing library : x264 core 140 r2377 1ca7bb9
Language : English
Audio
ID : 2
Format : AAC
Format/Info : Advanced Audio Codec
Format profile : LC
Codec ID : 40
Duration : 5mn 28s
Duration_LastFrame : 43ms
Bit rate mode : Constant
Bit rate : 96.0 Kbps
Channel(s) : 2 channels
Channel(s)_Original : 1 channel
Channel positions : Front: C
Sampling rate : 48.0 KHz
Compression mode : Lossy
Stream size : 3.76 MiB (58%)
Language : Russian

Дополнительная информация:

Сначала вы узнаете, как собирать данные с помощью стандартных и расширенных форм HTML5. Затем будет рассмотрена дружественная к клиентам методика хранения данных в CSV-файлах.
Далее автор покажет, как хранить, администрировать и стилизовать данные с помощью трех популярных технологий: XML (прадедушки статических данных), JSON и рекурсивно названного YAML (YAML Ain't Markup Language), который часто используют в проектах, основанных на Ruby.
Кроме того, будут рассмотрены основные возможности работы с данными в HTML5, включая локальное хранилище.
Некоторые темы курса:
- Обработка отправленных данных с помощью PHP
- Работа с данными с помощью JavaScript и HTML-форм
- Хранение данных в виде значений, разделенных запятыми
- Сохранение, получение и отображение XML-данных
- Настройка и обновление данных JSON
- Создание файла данных YAML
- Использование решений для хранения данных HTML5
Файлы упражнений прилагаются к курсу.
Дополнительная информация на офсайте.
Скриншоты:

Дополнительные скриншоты:

Скачать .torrent

Для того, чтобы скачать торрент-файл

Lynda.com - Working with Data on the Web (2013) [RU]

с нашего сайта, Вам необходимо Войти на сайт под своим логином! Если у Вас ещё нет логина, тогда Вам нужно сначала Зарегистрироваться!

Как скачивать? · Что такое торрент? · Рейтинг и ограничения

Показать сообщения:    
Ответить на тему

Lynda.com - Working with Data on the Web (2013) [RU] скачать торрент (torrent), видеоуроки, тренинги, обучающее видео и видеокурсы

Текущее время: Сегодня 11:47

Часовой пояс: GMT + 4



Вы не можете начинать темы
Вы не можете отвечать на сообщения
Вы не можете редактировать свои сообщения
Вы не можете удалять свои сообщения
Вы не можете голосовать в опросах
Вы не можете прикреплять файлы к сообщениям
Вы не можете скачивать файлы