Javascript.Ninja - Базовый React (2018)

Ответить на тему
 
Автор Сообщение

Yulya ®

Javascript.Ninja | Базовый React (2018) PCRec [H.264] - Автор (режиссер): Javascript.Ninja
Жанр: Программирование, JavaScript, React
Описание:
React - превосходно документированная библиотека. create-react-app, redux, да и сам React задали стандартны де-факто по уровню developer experience. Это позволяет на курсе по минимуму пересказывать документацию, и по максимуму учить принципам, указывать слабые места и лучшие практики.
Продолжительность: 34:38:14
Качество видео: PCRec
Видео: AVC/H.264, 1280x720-1920x1080, ~226-792 Kbps
Аудио: AAC, 2 ch, 125-192 Kbps

Mediainfo:

Общее
Полное имя : .\01-Что такое React. Какие проблемы решал Facebook и что привело к доминации на рынке Frontend.mp4
Формат : MPEG-4
Профиль формата : Base Media / Version 2
Идентификатор кодека : mp42 (isom/mp42)
Размер файла : 462 Мбайт
Продолжительность : 1 ч. 19 м.
Режим общего битрейта : Переменный
Общий поток : 813 Кбит/сек
Дата кодирования : UTC 2018-03-14 18:06:18
Дата пометки : UTC 2018-03-14 18:06:18
gsst : 0
gstd : 4763596
Видео
Идентификатор : 1
Формат : AVC
Формат/Информация : Advanced Video Codec
Профиль формата : High@L3.1
Настройки формата : CABAC / 1 Ref Frames
Параметр CABAC формата : Да
Параметр RefFrames формата : 1 кадр
Параметр GOP формата : M=1, N=60
Идентификатор кодека : avc1
Идентификатор кодека/Информация : Advanced Video Coding
Продолжительность : 1 ч. 19 м.
Битрейт : 618 Кбит/сек
Максимальный битрейт : 5086 Кбит/сек
Ширина : 1280 пикселей
Высота : 720 пикселей
Соотношение сторон : 16:9
Режим частоты кадров : Постоянный
Частота кадров : 30,000 кадров/сек
Цветовое пространство : YUV
Субдискретизация насыщенности : 4:2:0
Битовая глубина : 8 бит
Тип развёртки : Прогрессивная
Бит/(Пиксели*Кадры) : 0.022
Размер потока : 351 Мбайт (76%)
Дата пометки : UTC 2018-03-14 18:09:08
Цветовой диапазон : Limited
Основные цвета : BT.709
Характеристики трансфера : BT.709
Коэффициенты матрицы : BT.709
Аудио
Идентификатор : 2
Формат : AAC
Формат/Информация : Advanced Audio Codec
Профиль формата : LC
Идентификатор кодека : mp4a-40-2
Продолжительность : 1 ч. 19 м.
Вид битрейта : Переменный
Битрейт : 192 Кбит/сек
Максимальный битрейт : 202 Кбит/сек
Каналы : 2 канала
Расположение каналов : Front: L R
Частота : 44,1 КГц
Частота кадров : 43,066 кадра/сек (1024 SPF)
Метод сжатия : С потерями
Размер потока : 109 Мбайт (24%)
Заголовок : IsoMedia File Produced by Google, 5-11-2011
Дата кодирования : UTC 2018-03-14 18:07:58
Дата пометки : UTC 2018-03-14 18:09:08
Общее
Полное имя : .\06-Практика - DOM.mp4
Формат : MPEG-4
Профиль формата : Base Media
Идентификатор кодека : isom (isom/iso2/avc1/mp41)
Размер файла : 306 Мбайт
Продолжительность : 1 ч. 45 м.
Общий поток : 406 Кбит/сек
Название фильма : Базовый React - Javascript.Ninja
Исполнитель : [06/20] DOM на практике
Программа кодирования : Lavf57.71.100
Обложка : Yes
Примечание : www.mediahuman.com
Видео
Идентификатор : 1
Формат : AVC
Формат/Информация : Advanced Video Codec
Профиль формата : High@L4
Настройки формата : CABAC / 2 Ref Frames
Параметр CABAC формата : Да
Параметр RefFrames формата : 2 кадра
Идентификатор кодека : avc1
Идентификатор кодека/Информация : Advanced Video Coding
Продолжительность : 1 ч. 45 м.
Битрейт : 273 Кбит/сек
Ширина : 1920 пикселей
Высота : 1080 пикселей
Соотношение сторон : 16:9
Режим частоты кадров : Постоянный
Частота кадров : 30,000 кадров/сек
Цветовое пространство : YUV
Субдискретизация насыщенности : 4:2:0
Битовая глубина : 8 бит
Тип развёртки : Прогрессивная
Бит/(Пиксели*Кадры) : 0.004
Размер потока : 206 Мбайт (67%)
Цветовой диапазон : Limited
Основные цвета : BT.709
Характеристики трансфера : BT.709
Коэффициенты матрицы : BT.709
Аудио
Идентификатор : 2
Формат : AAC
Формат/Информация : Advanced Audio Codec
Профиль формата : LC
Идентификатор кодека : mp4a-40-2
Продолжительность : 1 ч. 45 м.
Вид битрейта : Постоянный
Битрейт : 126 Кбит/сек
Каналы : 2 канала
Расположение каналов : Front: L R
Частота : 44,1 КГц
Частота кадров : 43,066 кадра/сек (1024 SPF)
Метод сжатия : С потерями
Размер потока : 94,8 Мбайт (31%)
Default : Да
AlternateGroup/String : 1

Дополнительная информация:

В раздаче имеются архивы! В них содержится дополнительные материалы.

Программа курса:

Два месяца глубокого погружения в экосистему React.
Урок 1. Что такое React. Какие проблемы решал Facebook и что привело к доминации на рынке Frontend
Урок 2. Компоненты: Props, State и Lifecycle. Разбираемся с внутренним устройством компонентов
Урок 3. Компонентное мышление. Как разбивать систему на компоненты. Признаки хорошего компонента
Урок 4. Практика: компонентное мышление. Разбираем теорию в жизни: от технического задания до кода на React
Урок 5. DOM. Взаимодействие React и реального DOM. Refs. Children
Урок 6. Практика: DOM
Урок 7. Тестирование. Как писать тестируемые компоненты и что за этим стоит
Урок 8. Storybook and Jest. Тестируем компоненты "вручную" и "автоматически"
Урок 9. Компоненты высших порядков: Intro. Как, зачем и почему. Разбираем фундаментальный паттерн мира React
Урок 10. Практика: High Order Components. Пишем свои первые HOC'и
Урок 11. 1Slots #2: Scoped slots. Сложные сценарии применения слотов
Урок 12. Практика: HOC #2. HOC'и и recompose
Урок 13. Роутинг. Знакомство с React-Router v4
Урок 14. Практика: ACL в React-Router. Реализовываем контроль доступа
Урок 15. Однонаправленный data-flow. Всем Flux!
Урок 16. Знакомство с Redux. Reducers, actions, thunks.
Урок 17. Middleware в Redux. Как, зачем и почему нужны Middleware. Типичные подходы к их реализации
Урок 18. Redux-Saga. One middleware to rule them all
Урок 19. Формы в React. Решаем основную боль React с redux-form/final-form
Урок 20. Что дальше? Куда развиваться React-разработчику дальше?
Скриншоты:
Скачать .torrent

Для того, чтобы скачать торрент-файл

Javascript.Ninja - Базовый React (2018)

с нашего сайта, Вам необходимо Войти на сайт под своим логином! Если у Вас ещё нет логина, тогда Вам нужно сначала Зарегистрироваться!

Как скачивать? · Что такое торрент? · Рейтинг и ограничения

Показать сообщения:    
Ответить на тему

Javascript.Ninja - Базовый React (2018) скачать торрент (torrent), видеоуроки, тренинги, обучающее видео и видеокурсы

Текущее время: Сегодня 09:59

Часовой пояс: GMT + 4



Вы не можете начинать темы
Вы не можете отвечать на сообщения
Вы не можете редактировать свои сообщения
Вы не можете удалять свои сообщения
Вы не можете голосовать в опросах
Вы не можете прикреплять файлы к сообщениям
Вы не можете скачивать файлы