Николай Злобин - Авторский курс по работе с видеосветом (2017)

Ответить на тему
 
Автор Сообщение

Yulya ®

Николай Злобин | Авторский курс по работе с видеосветом (2017) PCRec [H.264/1080p]- Автор (режиссер): Николай Злобин
Жанр: Съемка и обработка фото
Описание:
Этот курс предназначен для тех кто хочет научиться делать необычные кадры и научиться работать с видеосветом и освоить широкий угол.
Также я научу вас работать в Adobe Lightrom и в Photoshop.
Продолжительность: 01:39:09
Качество видео: PCRec
Видео: AVC/H.264, 1920x1080, ~11,8 Мбит/сек
Аудио: AAC, 2 ch, 409 Кбит/сек

Mediainfo:

Общее
Полное имя : E:\photo\Николай Злобин - Авторский курс по работе с видеосветом\02-Theory.mp4
Формат : MPEG-4
Профиль формата : Base Media / Version 2
Идентификатор кодека : mp42 (mp42/mp41)
Размер файла : 1,03 Гбайт
Продолжительность : 12 м. 11 с.
Режим общего битрейта : Переменный
Общий поток : 12,1 Мбит/сек
Дата кодирования : UTC 2017-03-12 19:25:43
Дата пометки : UTC 2017-03-12 19:26:02
TIM : 00:00:00:00
TSC : 24000
TSZ : 1001
Видео
Идентификатор : 1
Формат : AVC
Формат/Информация : Advanced Video Codec
Профиль формата : Main@L4.1
Настройки формата : CABAC / 3 Ref Frames
Параметр CABAC формата : Да
Параметр RefFrames формата : 3 кадра
Идентификатор кодека : avc1
Идентификатор кодека/Информация : Advanced Video Coding
Продолжительность : 12 м. 11 с.
Битрейт : 11,8 Мбит/сек
Ширина : 1920 пикселей
Высота : 1080 пикселей
Соотношение сторон : 16:9
Режим частоты кадров : Постоянный
Частота кадров : 23,976 (24000/1001) кадра/сек
Стандарт вещания : NTSC
Цветовое пространство : YUV
Субдискретизация насыщенности : 4:2:0
Битовая глубина : 8 бит
Тип развёртки : Прогрессивная
Бит/(Пиксели*Кадры) : 0.237
Размер потока : 1,01 Гбайт (97%)
Язык : English
Дата кодирования : UTC 2017-03-12 19:25:43
Дата пометки : UTC 2017-03-12 19:25:43
Цветовой диапазон : Limited
Основные цвета : BT.709
Характеристики трансфера : BT.709
Коэффициенты матрицы : BT.709
Аудио
Идентификатор : 2
Формат : AAC
Формат/Информация : Advanced Audio Codec
Профиль формата : LC
Идентификатор кодека : mp4a-40-2
Продолжительность : 12 м. 11 с.
Продолжительность оригинала : 12 м. 11 с.
Вид битрейта : Переменный
Битрейт : 317 Кбит/сек
Максимальный битрейт : 409 Кбит/сек
Каналы : 2 канала
Расположение каналов : Front: L R
Частота : 48,0 КГц
Частота кадров : 46,875 кадров/сек (1024 SPF)
Метод сжатия : С потерями
Размер потока : 27,7 Мбайт (3%)
Размер потока оригинала : 27,7 Мбайт (3%)
Язык : English
Дата кодирования : UTC 2017-03-12 19:25:43
Дата пометки : UTC 2017-03-12 19:25:43
Скриншоты:
Скачать .torrent

Для того, чтобы скачать торрент-файл

Николай Злобин - Авторский курс по работе с видеосветом (2017)

с нашего сайта, Вам необходимо Войти на сайт под своим логином! Если у Вас ещё нет логина, тогда Вам нужно сначала Зарегистрироваться!

Как скачивать? · Что такое торрент? · Рейтинг и ограничения

Показать сообщения:    
Ответить на тему

Николай Злобин - Авторский курс по работе с видеосветом (2017) скачать торрент (torrent), видеоуроки, тренинги, обучающее видео и видеокурсы

Текущее время: Сегодня 10:00

Часовой пояс: GMT + 4



Вы не можете начинать темы
Вы не можете отвечать на сообщения
Вы не можете редактировать свои сообщения
Вы не можете удалять свои сообщения
Вы не можете голосовать в опросах
Вы не можете прикреплять файлы к сообщениям
Вы не можете скачивать файлы