ProfIT - PHP-1 Введение в профессию (2018)

Ответить на тему
 
Автор Сообщение

Yulya ®

ProfIT | PHP-1 Введение в профессию (2018) PCRec [H.264] - Автор (режиссер): ProfIT
Производство: Альберт Степанцев
Жанр: Программирование, PHP
Описание:
О языке программирования PHP ходят много мифов. Мол неправильный он, некрасивый, ООП в нём ненастоящее... Почему же тогда его используют Facebook и ВКонтакте, Википедия и Badoo?
- потому что это очень гибкий язык, позволяющий создавать веб-приложения любой сложности!
- потому что изучить PHP очень легко, а начать применять на практике можно буквально после нескольких уроков!
- потому что современный PHP очень быстрый и нетребовательный к памяти, идеален для применения в системах с высокой нагрузкой!
Хотите научиться программировать на PHP? Качайте и смотрите данный курс!
Продолжительность: 12:24:37
Качество видео: PCRec
Видео: AVC/H.264, 1728x1800-1920x1040, ~490-625 Kbps
Аудио: AAC, 2 ch, 235 Kbps

Mediainfo:

Общее
Полное имя : .\02 Функции. Операторы контроля. Включение файлов\2018-02-13-PHP-1-02-HW.mp4
Формат : MPEG-4
Профиль формата : Base Media / Version 2
Идентификатор кодека : mp42 (mp42/mp41/isom/avc1)
Размер файла : 151 Мбайт
Продолжительность : 24 м. 38 с.
Режим общего битрейта : Переменный
Общий поток : 858 Кбит/сек
Дата кодирования : UTC 2018-02-13 17:52:00
Дата пометки : UTC 2018-02-13 17:52:00
Видео
Идентификатор : 1
Формат : AVC
Формат/Информация : Advanced Video Codec
Профиль формата : High@L4
Настройки формата : CABAC / 4 Ref Frames
Параметр CABAC формата : Да
Параметр RefFrames формата : 4 кадра
Идентификатор кодека : avc1
Идентификатор кодека/Информация : Advanced Video Coding
Продолжительность : 24 м. 38 с.
Битрейт : 618 Кбит/сек
Ширина : 1728 пикселей
Высота : 1080 пикселей
Соотношение сторон : 16:10
Режим частоты кадров : Постоянный
Частота кадров : 28,746 кадров/сек
Цветовое пространство : YUV
Субдискретизация насыщенности : 4:2:0
Битовая глубина : 8 бит
Тип развёртки : Прогрессивная
Бит/(Пиксели*Кадры) : 0.012
Размер потока : 109 Мбайт (72%)
Библиотека кодирования : x264 core 155 r10 b00bcaf
Настройки программы : cabac=1 / ref=4 / deblock=1:0:0 / analyse=0x3:0x113 / me=hex / subme=8 / psy=1 / psy_rd=1.00:0.00 / mixed_ref=1 / me_range=16 / chroma_me=1 / trellis=2 / 8x8dct=1 / cqm=0 / deadzone=21,11 / fast_pskip=1 / chroma_qp_offset=-2 / threads=34 / lookahead_threads=5 / sliced_threads=0 / nr=0 / decimate=1 / interlaced=0 / bluray_compat=0 / stitchable=1 / constrained_intra=0 / bframes=3 / b_pyramid=2 / b_adapt=2 / b_bias=0 / direct=3 / weightb=1 / open_gop=0 / weightp=2 / keyint=infinite / keyint_min=28 / scenecut=40 / intra_refresh=0 / rc_lookahead=50 / rc=crf / mbtree=1 / crf=20.0 / qcomp=0.60 / qpmin=5 / qpmax=69 / qpstep=4 / vbv_maxrate=5500 / vbv_bufsize=15000 / crf_max=0.0 / nal_hrd=none / filler=0 / ip_ratio=1.40 / aq=1:1.00
Дата кодирования : UTC 2018-02-13 17:52:00
Дата пометки : UTC 2018-02-13 17:52:00
Цветовой диапазон : Limited
Основные цвета : BT.709
Характеристики трансфера : BT.709
Коэффициенты матрицы : BT.709
Аудио
Идентификатор : 2
Формат : AAC
Формат/Информация : Advanced Audio Codec
Профиль формата : LC
Идентификатор кодека : mp4a-40-2
Продолжительность : 24 м. 38 с.
Вид битрейта : Переменный
Битрейт : 235 Кбит/сек
Каналы : 2 канала
Расположение каналов : Front: L R
Частота : 48,0 КГц
Частота кадров : 46,875 кадров/сек (1024 SPF)
Метод сжатия : С потерями
Размер потока : 41,5 Мбайт (27%)
Дата кодирования : UTC 2018-02-13 17:52:00
Дата пометки : UTC 2018-02-13 17:52:00
Общее
Полное имя : .\06 Классы и объекты. Введение в ООП\2018-03-05 Курс «PHP-1_ Введение в профессию» Урок 6.mp4
Формат : MPEG-4
Профиль формата : Base Media / Version 2
Идентификатор кодека : mp42 (mp42/mp41/isom/avc1)
Размер файла : 385 Мбайт
Продолжительность : 1 ч. 13 м.
Режим общего битрейта : Переменный
Общий поток : 730 Кбит/сек
Дата кодирования : UTC 2018-03-05 18:38:40
Дата пометки : UTC 2018-03-05 18:38:40
Видео
Идентификатор : 1
Формат : AVC
Формат/Информация : Advanced Video Codec
Профиль формата : High@L4
Настройки формата : CABAC / 4 Ref Frames
Параметр CABAC формата : Да
Параметр RefFrames формата : 4 кадра
Идентификатор кодека : avc1
Идентификатор кодека/Информация : Advanced Video Coding
Продолжительность : 1 ч. 13 м.
Битрейт : 491 Кбит/сек
Ширина : 1920 пикселей
Высота : 1040 пикселей
Соотношение сторон : 1,85:1
Режим частоты кадров : Постоянный
Частота кадров : 25,000 кадров/сек
Цветовое пространство : YUV
Субдискретизация насыщенности : 4:2:0
Битовая глубина : 8 бит
Тип развёртки : Прогрессивная
Бит/(Пиксели*Кадры) : 0.010
Размер потока : 259 Мбайт (67%)
Библиотека кодирования : x264 core 155 r10 b00bcaf
Настройки программы : cabac=1 / ref=4 / deblock=1:0:0 / analyse=0x3:0x113 / me=hex / subme=8 / psy=1 / psy_rd=1.00:0.00 / mixed_ref=1 / me_range=16 / chroma_me=1 / trellis=2 / 8x8dct=1 / cqm=0 / deadzone=21,11 / fast_pskip=1 / chroma_qp_offset=-2 / threads=32 / lookahead_threads=5 / sliced_threads=0 / nr=0 / decimate=1 / interlaced=0 / bluray_compat=0 / stitchable=1 / constrained_intra=0 / bframes=3 / b_pyramid=2 / b_adapt=2 / b_bias=0 / direct=3 / weightb=1 / open_gop=0 / weightp=2 / keyint=infinite / keyint_min=25 / scenecut=40 / intra_refresh=0 / rc_lookahead=50 / rc=crf / mbtree=1 / crf=20.0 / qcomp=0.60 / qpmin=5 / qpmax=69 / qpstep=4 / vbv_maxrate=5500 / vbv_bufsize=15000 / crf_max=0.0 / nal_hrd=none / filler=0 / ip_ratio=1.40 / aq=1:1.00
Дата кодирования : UTC 2018-03-05 18:38:40
Дата пометки : UTC 2018-03-05 18:38:40
Цветовой диапазон : Limited
Основные цвета : BT.709
Характеристики трансфера : BT.709
Коэффициенты матрицы : BT.709
Аудио
Идентификатор : 2
Формат : AAC
Формат/Информация : Advanced Audio Codec
Профиль формата : LC
Идентификатор кодека : mp4a-40-2
Продолжительность : 1 ч. 13 м.
Вид битрейта : Переменный
Битрейт : 235 Кбит/сек
Каналы : 2 канала
Расположение каналов : Front: L R
Частота : 48,0 КГц
Частота кадров : 46,875 кадров/сек (1024 SPF)
Метод сжатия : С потерями
Размер потока : 124 Мбайт (32%)
Дата кодирования : UTC 2018-03-05 18:38:40
Дата пометки : UTC 2018-03-05 18:38:40

Дополнительная информация:

Что мы с вами изучим в ходе курса:
- Научимся писать программы на PHP и поймем, как из них строится веб-приложение
- Познакомимся с базовыми возможностями языка, включая объектно-ориентированное программирование
- Научимся взаимодействовать с пользователем нашего сайта
- Освоим азы работы с базой данных
- Поговорим о правильной архитектуре и об использовании современных методик программирования
Модули курса (уроки):
1. Быстрый старт: выражения и переменные, типы
2. Функции. Операторы контроля. Включение файлов.
3. Массивы. Циклы. Взаимодействие с пользователем.
4. Работа с файлами на сервере. Загрузка от клиента.
5. Cookie. Сессии. Авторизация.
6. Классы и объекты. Введение в ООП.
7. Объектно-ориентированный подход
8. Работа с базой данных
9. Архитектура проекта
Скриншоты:
Скачать .torrent

Для того, чтобы скачать торрент-файл

ProfIT - PHP-1 Введение в профессию (2018)

с нашего сайта, Вам необходимо Войти на сайт под своим логином! Если у Вас ещё нет логина, тогда Вам нужно сначала Зарегистрироваться!

Как скачивать? · Что такое торрент? · Рейтинг и ограничения

Показать сообщения:    
Ответить на тему

ProfIT - PHP-1 Введение в профессию (2018) скачать торрент (torrent), видеоуроки, тренинги, обучающее видео и видеокурсы

Текущее время: Сегодня 09:43

Часовой пояс: GMT + 4



Вы не можете начинать темы
Вы не можете отвечать на сообщения
Вы не можете редактировать свои сообщения
Вы не можете удалять свои сообщения
Вы не можете голосовать в опросах
Вы не можете прикреплять файлы к сообщениям
Вы не можете скачивать файлы