Елeна Минaкова - 12 сказочных коллажей. Времена года. Видеокурс (2018)

Ответить на тему
 
Автор Сообщение

Yulya ®

Елeна Минaкова | 12 сказочных коллажей. Времена года. Видеокурс (2018) PCRec - Автор (режиссер): Елeна Минaкова
Производство: Россия / photoshop-master.org
Жанр: Photoshop, Фотоколлаж
Описание:
Фотоколлаж – это соединение нескольких фотоизображений в одной картинке, при котором все объекты смотрятся как единое целое. Если вы думаете, что создавать такие коллажи очень сложно, то спешим вас обрадовать — на самом деле создавать их легко, просто нужно знать законы и правила, по которым они создаются. Этот курс призван показать как выглядят профессиональные коллажи и научить вас их создавать.
Продолжительность: 30:00:00
Качество видео: PCRec
Видео: AVC/H.264, 1280x720, ~231 Kbps
Аудио: AAC, 2 ch, 126 Kbps

Список уроков:

• Январь. Коллаж «Зимнее царство». Мы с вами побываем в волшебном ледяном царстве и познакомимся с девушкой, которая живёт в этом
краю среди снега и льда. Время исполнения: 2 часа 1 минута
• Февраль. Коллаж «Свидание». В этой работе мы с вами создадим фотоколлаж долгожданного свидания двух влюблённых в ненастный, дождливый день. Время исполнения: 1 час 56 минут
• Март. Коллаж «Цветущая весна». Здесь мы с вами создадим работу с цветочной феей, которая присела отдохнуть на веточку в весеннем саду. Время исполнения: 2 часа 27 минут
• Апрель. Коллаж «Давайте познакомимся». Здесь мы с вами создадим работу с космическим путешественником, который встретился на чужой планете с её обитателями весьма необычной внешности. Время исполнения: 1 час 50 минут
• Май. Коллаж «Золушка». Здесь мы с вами создадим работу по мотивам вечной, нестареющей сказки про прекрасную, нежную Золушку и её хрустальную туфельку. Время исполнения: 2 часа 40 минут
• Июнь. Коллаж «У пруда». В этой работе мы будем создавать летнюю картинку с девочкой, которая пришла к пруду покормить рыбок. Время исполнения: 1 час 59 минут
• Июль. Коллаж «Подводный дворец». Здесь мы с вами создадим работу с красивой дамой, которая живёт в подводном дворце. Создадим интерьер дворца, а также вид за окном с морскими волнами и подводными обитателями. Время исполнения: 2 часа 36 минут
• Август. Коллаж «В дебрях леса». В этой работе мы предпримем путешествие в лесные дебри и там найдём необычный водопад, созданный какой-то исчезнувшей цивилизацией. Время исполнения: 2 часа 20 минут
• Сентябрь. Коллаж «Нежная улыбка осени». Здесь мы создадим осеннюю работу с красивым закатным небом, девушкой и декоративной колонной, обвитой виноградом. Время исполнения: 1 час 58 минут
• Октябрь. Коллаж «Из жизни привидений». В этой работе мы создадим картинку с летающим привидением диким, но симпатичным, которое решило пошалить в праздник Хэллоуин. Время исполнения: 1 час 47 минут
• Ноябрь. Коллаж «Осенние краски». В этой работе создадим красивый осенний коллаж с девушкой, собачкой и любопытным вороном. Время исполнения: 1 час 57 минут
• Декабрь. Коллаж «В тёплые страны». В этой работе мы будем провожать в теплые страны дракона, который решил переждать холодные деньки на юге. С собой в дорогу он прихватил флакончик с волшебным зельем. Время исполнения: 2 часа 24 минуты
БОНУС
Архив качественных фотоматериалов для Ваших работ.

Mediainfo:

Общее
Полное имя : C:\03\08.mp4
Формат : MPEG-4
Профиль формата : Base Media / Version 2
Идентификатор кодека : mp42 (isom/mp42)
Размер файла : 37,6 Мбайт
Продолжительность : 15 м. 11 с.
Режим общего битрейта : Переменный
Общий поток : 346 Кбит/сек
Дата кодирования : UTC 2018-01-06 06:53:39
Дата пометки : UTC 2018-01-06 06:53:39
gsst : 0
gstd : 911568
Видео
Идентификатор : 1
Формат : AVC
Формат/Информация : Advanced Video Codec
Профиль формата : Main@L3.1
Параметр CABAC формата : Да
Параметр ReFrames формата : 3 кадра
Идентификатор кодека : avc1
Идентификатор кодека/Информация : Advanced Video Coding
Продолжительность : 15 м. 11 с.
Битрейт : 218 Кбит/сек
Ширина : 1280 пикселей
Высота : 720 пикселей
Соотношение сторон : 16:9
Режим частоты кадров : Постоянный
Частота кадров : 20,000 кадров/сек
Цветовое пространство : YUV
Субдискретизация насыщенности : 4:2:0
Битовая глубина : 8 бит
Тип развёртки : Прогрессивная
Бит/(Пиксели*Кадры) : 0.012
Размер потока : 23,7 Мбайт (63%)
Заголовок : ISO Media file produced by Google Inc. Created on: 01/05/2018.
Дата кодирования : UTC 2018-01-06 06:53:39
Дата пометки : UTC 2018-01-06 06:53:39
Цветовой диапазон : Limited
Основные цвета : BT.709
Характеристики трансфера : BT.709
Коэффициенты матрицы : BT.709
Аудио
Идентификатор : 2
Формат : AAC
Формат/Информация : Advanced Audio Codec
Профиль формата : LC
Идентификатор кодека : 40
Продолжительность : 15 м. 11 с.
Вид битрейта : Переменный
Битрейт : 126 Кбит/сек
Каналы : 2 канала
Расположение каналов : Front: L R
Частота : 44,1 КГц
Частота кадров : 43,066 кадра/сек (1024 spf)
Метод сжатия : С потерями
Размер потока : 13,6 Мбайт (36%)
Заголовок : ISO Media file produced by Google Inc. Created on: 01/05/2018.
Дата кодирования : UTC 2018-01-06 06:53:39
Дата пометки : UTC 2018-01-06 06:53:39
Общее
Полное имя : C:\03\09.mp4
Формат : MPEG-4
Профиль формата : Base Media / Version 2
Идентификатор кодека : mp42 (isom/mp42)
Размер файла : 28,1 Мбайт
Продолжительность : 12 м. 34 с.
Режим общего битрейта : Переменный
Общий поток : 313 Кбит/сек
Дата кодирования : UTC 2018-01-06 06:54:36
Дата пометки : UTC 2018-01-06 06:54:36
gsst : 0
gstd : 754346
Видео
Идентификатор : 1
Формат : AVC
Формат/Информация : Advanced Video Codec
Профиль формата : Main@L3.1
Параметр CABAC формата : Да
Параметр ReFrames формата : 3 кадра
Идентификатор кодека : avc1
Идентификатор кодека/Информация : Advanced Video Coding
Продолжительность : 12 м. 34 с.
Битрейт : 184 Кбит/сек
Ширина : 1280 пикселей
Высота : 720 пикселей
Соотношение сторон : 16:9
Режим частоты кадров : Постоянный
Частота кадров : 20,000 кадров/сек
Цветовое пространство : YUV
Субдискретизация насыщенности : 4:2:0
Битовая глубина : 8 бит
Тип развёртки : Прогрессивная
Бит/(Пиксели*Кадры) : 0.010
Размер потока : 16,6 Мбайт (59%)
Заголовок : ISO Media file produced by Google Inc. Created on: 01/05/2018.
Дата кодирования : UTC 2018-01-06 06:54:36
Дата пометки : UTC 2018-01-06 06:54:36
Цветовой диапазон : Limited
Основные цвета : BT.709
Характеристики трансфера : BT.709
Коэффициенты матрицы : BT.709
Аудио
Идентификатор : 2
Формат : AAC
Формат/Информация : Advanced Audio Codec
Профиль формата : LC
Идентификатор кодека : 40
Продолжительность : 12 м. 34 с.
Вид битрейта : Переменный
Битрейт : 126 Кбит/сек
Каналы : 2 канала
Расположение каналов : Front: L R
Частота : 44,1 КГц
Частота кадров : 43,066 кадра/сек (1024 spf)
Метод сжатия : С потерями
Размер потока : 11,3 Мбайт (40%)
Заголовок : ISO Media file produced by Google Inc. Created on: 01/05/2018.
Дата кодирования : UTC 2018-01-06 06:54:36
Дата пометки : UTC 2018-01-06 06:54:36

5 секретов качественного коллажа:

• Качественные исходные материалы. Коллаж будет смотреться качественно, если при его создании использовались фотографии больших размеров. Такие фотографии можно найти на специальных стоках или сделать самостоятельно цифровым зеркальным фотоаппаратом. Не желательно увеличивать фото, если исходный размер был маленьким. При вынужденном увеличении неизбежно пострадает качество исходника, а это плохо отразится на восприятии вашей работы в целом.
• Композиция работы. В качественном коллаже должен быть обязательно выделен главный доминирующий объект, композиционный центр. Этот главный объект должен в первую очередь привлекать внимание зрителя. Если этот центр неявно выделен, то в работе создается ощущение хаоса.
• Тени, свет и рефлексы. Мастера качественного коллажа знают, что каждый объект в работе должен иметь тени, свет и рефлексы. Только благодаря этим эффектам картинка смотрится реалистично. В жизни все объекты отбрасывают тень на поверхности, на которой находятся, также должно быть и в вашей работе. В самом начале нужно определить, где в работе находится основной источник света и в соответствии с этим прорисовывать все тени и свет.
• Работа с цветом. Цветокоррекция – важная часть работы при составлении целостного коллажа из разрозненных, разномастных исходников. Ваш коллаж будет смотреться гармонично, если все исходники вы привели к общему знаменателю, к общей цветовой гамме. В результате вы получите красивую реалистичную картинку.
• Оригинальность работы. Если вы хотите получить тысячи восторженных отзывов, то нужно задуматься об оригинальной идее вашего коллажа. Чтобы увлечь вашего зрителя хорошо продумайте сюжет, добавьте динамику в работу, интересные детали, которые деликатно будут дополнять ваш коллаж.
Скриншоты:
Скачать .torrent

Для того, чтобы скачать торрент-файл

Елeна Минaкова - 12 сказочных коллажей. Времена года. Видеокурс (2018)

с нашего сайта, Вам необходимо Войти на сайт под своим логином! Если у Вас ещё нет логина, тогда Вам нужно сначала Зарегистрироваться!

Как скачивать? · Что такое торрент? · Рейтинг и ограничения

Показать сообщения:    
Ответить на тему

Елeна Минaкова - 12 сказочных коллажей. Времена года. Видеокурс (2018) скачать торрент (torrent), видеоуроки, тренинги, обучающее видео и видеокурсы

Текущее время: Сегодня 08:10

Часовой пояс: GMT + 4



Вы не можете начинать темы
Вы не можете отвечать на сообщения
Вы не можете редактировать свои сообщения
Вы не можете удалять свои сообщения
Вы не можете голосовать в опросах
Вы не можете прикреплять файлы к сообщениям
Вы не можете скачивать файлы