GeekUniversity - Вторая четверть. Разработка Backend-а интернет-магазина (2018)

Ответить на тему
 
Автор Сообщение

Yulya ®

GeekUniversity | Вторая четверть. Разработка Backend-а интернет-магазина (2018) PCRec [H.264] - Автор (режиссер): GeekUniversity
Жанр: Программирование, PHP
Описание:
Эта четверть полностью посвящена разработке backend-а. Вы разработаете свой собственный движок на PHP MVC, освоите базу данных MySql, погрузитесь вглубь операционной системы. Эти знания позволят вам написать полностью работающий интернет-магазин.
Продолжительность: 74:49:19
Качество видео: PCRec
Видео: AVC/H.264, 1278x720-1280x720, ~64-565 Kbps
Аудио: AAC, 2 ch, 64-253 Kbps

Mediainfo:

Общее
Полное имя : .\03 Видео-курс основы баз данных\Урок 1. Реляционные базы данных\0.mp4
Формат : MPEG-4
Профиль формата : Base Media / Version 2
Идентификатор кодека : mp42 (isom/mp42)
Размер файла : 17,2 Мбайт
Продолжительность : 7 м. 30 с.
Режим общего битрейта : Переменный
Общий поток : 320 Кбит/сек
Дата кодирования : UTC 2016-06-27 05:43:17
Дата пометки : UTC 2016-06-27 05:43:17
Видео
Идентификатор : 1
Формат : AVC
Формат/Информация : Advanced Video Codec
Профиль формата : Main@L3.1
Настройки формата : CABAC / 3 Ref Frames
Параметр CABAC формата : Да
Параметр RefFrames формата : 3 кадра
Идентификатор кодека : avc1
Идентификатор кодека/Информация : Advanced Video Coding
Продолжительность : 7 м. 30 с.
Битрейт : 64,0 Кбит/сек
Ширина : 1278 пикселей
Высота : 720 пикселей
Соотношение сторон : 16:9
Режим частоты кадров : Постоянный
Частота кадров : 30,000 кадров/сек
Стандарт вещания : NTSC
Цветовое пространство : YUV
Субдискретизация насыщенности : 4:2:0
Битовая глубина : 8 бит
Тип развёртки : Прогрессивная
Бит/(Пиксели*Кадры) : 0.002
Размер потока : 3,44 Мбайт (20%)
Язык : English
Дата кодирования : UTC 2016-06-27 05:43:17
Дата пометки : UTC 2016-06-27 05:43:17
Цветовой диапазон : Limited
Аудио
Идентификатор : 2
Формат : AAC
Формат/Информация : Advanced Audio Codec
Профиль формата : LC
Идентификатор кодека : mp4a-40-2
Продолжительность : 7 м. 30 с.
Вид битрейта : Переменный
Битрейт : 254 Кбит/сек
Максимальный битрейт : 399 Кбит/сек
Каналы : 2 канала
Расположение каналов : Front: L R
Частота : 44,1 КГц
Частота кадров : 43,066 кадра/сек (1024 SPF)
Метод сжатия : С потерями
Размер потока : 13,6 Мбайт (79%)
Язык : English
Дата кодирования : UTC 2016-06-27 05:43:17
Дата пометки : UTC 2016-06-27 05:43:17
Общее
Полное имя : .\01 Базовый курс PHP\Урок 07\Урок 7.mp4
Формат : MPEG-4
Профиль формата : Base Media
Идентификатор кодека : isom (isom/iso2/avc1/mp41)
Размер файла : 454 Мбайт
Продолжительность : 2 ч. 37 м.
Общий поток : 402 Кбит/сек
Программа кодирования : Lavf54.29.104
Видео
Идентификатор : 1
Формат : AVC
Формат/Информация : Advanced Video Codec
Профиль формата : High@L3.1
Настройки формата : CABAC / 4 Ref Frames
Параметр CABAC формата : Да
Параметр RefFrames формата : 4 кадра
Идентификатор кодека : avc1
Идентификатор кодека/Информация : Advanced Video Coding
Продолжительность : 2 ч. 37 м.
Битрейт : 331 Кбит/сек
Номинальный битрейт : 640 Кбит/сек
Ширина : 1280 пикселей
Высота : 720 пикселей
Соотношение сторон : 16:9
Режим частоты кадров : Постоянный
Частота кадров : 20,000 кадров/сек
Цветовое пространство : YUV
Субдискретизация насыщенности : 4:2:0
Битовая глубина : 8 бит
Тип развёртки : Прогрессивная
Бит/(Пиксели*Кадры) : 0.018
Размер потока : 373 Мбайт (82%)
Библиотека кодирования : x264 core 132
Настройки программы : cabac=1 / ref=1 / deblock=1:0:0 / analyse=0x3:0x113 / me=hex / subme=2 / psy=1 / psy_rd=1.00:0.00 / mixed_ref=0 / me_range=16 / chroma_me=1 / trellis=0 / 8x8dct=1 / cqm=0 / deadzone=21,11 / fast_pskip=1 / chroma_qp_offset=0 / threads=4 / lookahead_threads=1 / sliced_threads=0 / nr=0 / decimate=1 / interlaced=0 / bluray_compat=0 / constrained_intra=0 / bframes=3 / b_pyramid=2 / b_adapt=1 / b_bias=0 / direct=1 / weightb=1 / open_gop=0 / weightp=1 / keyint=80 / keyint_min=8 / scenecut=40 / intra_refresh=0 / rc_lookahead=10 / rc=cbr / mbtree=1 / bitrate=640 / ratetol=1.0 / qcomp=0.60 / qpmin=0 / qpmax=69 / qpstep=4 / vbv_maxrate=640 / vbv_bufsize=512 / nal_hrd=none / ip_ratio=1.40 / aq=1:1.00
Аудио
Идентификатор : 2
Формат : AAC
Формат/Информация : Advanced Audio Codec
Профиль формата : LC
Идентификатор кодека : mp4a-40-2
Продолжительность : 2 ч. 37 м.
Вид битрейта : Постоянный
Битрейт : 64,0 Кбит/сек
Каналы : 2 канала
Расположение каналов : Front: L R
Частота : 44,1 КГц
Частота кадров : 43,066 кадра/сек (1024 SPF)
Метод сжатия : С потерями
Размер потока : 72,2 Мбайт (16%)
Default : Да
AlternateGroup/String : 1

Дополнительная информация:

В раздаче имеются архивы! В них содержится дополнительные материалы.

Программа обучения:

01 Базовый курс PHP
+ Переменные, типы данных, циклы, ветвления, функци
+ Работа с файлы и базой данных
+ GET и POST-запросы
+ Сессии и Cookies
02 Профессиональная веб-разработка на PHP
+ ООП в PHP
+ Шаблон MVC
+ Работа с базой данных
+ Шаблонизаторы
03 Базы данных
+ Проектирование баз данных
+ MySql и MySql Workbench
+ Язык SQL
+ Объединение запросов, хранимые процедуры, триггеры, функции
+ Транзакции и оптимизация запросов
+ NoSQL и мастштабирование MySQL
+ Движки MySQL, управление и обслуживание
+ Подготовка к собеседованию
04 Операционные системы
+ Потоки, процессы
+ Основы работы Linux
+ Управление памятью
+ Файловые системы
Бонус
+ Курс по Информационной безопасности
Скриншоты:
Скачать .torrent

Для того, чтобы скачать торрент-файл

GeekUniversity - Вторая четверть. Разработка Backend-а интернет-магазина (2018)

с нашего сайта, Вам необходимо Войти на сайт под своим логином! Если у Вас ещё нет логина, тогда Вам нужно сначала Зарегистрироваться!

Как скачивать? · Что такое торрент? · Рейтинг и ограничения

Показать сообщения:    
Ответить на тему

GeekUniversity - Вторая четверть. Разработка Backend-а интернет-магазина (2018) скачать торрент (torrent), видеоуроки, тренинги, обучающее видео и видеокурсы

Текущее время: Сегодня 15:31

Часовой пояс: GMT + 4



Вы не можете начинать темы
Вы не можете отвечать на сообщения
Вы не можете редактировать свои сообщения
Вы не можете удалять свои сообщения
Вы не можете голосовать в опросах
Вы не можете прикреплять файлы к сообщениям
Вы не можете скачивать файлы