Marlin - Самый понятный курс по php для начинающих (2018)

Ответить на тему
 
Автор Сообщение

Yulya ®

Marlin | Самый понятный курс по php для начинающих (2018) PCRec [H.264] - Автор (режиссер): Marlin
Жанр: Программирование, PHP
Описание:
Курс особенно будет полезен каждому начинающему. А также застрявшим где-то на пути синтаксиса, утонувшим в океане под названием фреймворк (Laravel, Yii2 и т.д.). И тем кто потерялся в глухом городе под названием «Не вижу и не понимаю куда двигаться?». Всем тем, которые задаются вопросом А как это работает? Я же так повторить не смогу! И наконец тем, которые еще ни разу в жизни, не создавали сайт с нуля, без использования новомодных фреймворков.
Продолжительность: 22:42:27
Качество видео: PCRec
Видео: AVC/H.264, 1280x720-1280x1024, ~72-258 Kbps
Аудио: AAC, 2 ch, 133-150 Kbps

Mediainfo:

Общее
Полное имя : .\вебинар #02.mp4
Формат : MPEG-4
Профиль формата : Base Media / Version 2
Идентификатор кодека : mp42 (isom/iso2/avc1/mp41)
Размер файла : 220 Мбайт
Продолжительность : 2 ч. 24 м.
Режим общего битрейта : Переменный
Общий поток : 213 Кбит/сек
Дата кодирования : UTC 2018-04-08 07:10:35
Дата пометки : UTC 2018-04-08 07:10:35
Программа кодирования : HandBrake 1.0.7 2017040900
Видео
Идентификатор : 1
Формат : AVC
Формат/Информация : Advanced Video Codec
Профиль формата : Main@L4
Настройки формата : CABAC / 4 Ref Frames
Параметр CABAC формата : Да
Параметр RefFrames формата : 4 кадра
Идентификатор кодека : avc1
Идентификатор кодека/Информация : Advanced Video Coding
Продолжительность : 2 ч. 24 м.
Битрейт : 72,6 Кбит/сек
Ширина : 1280 пикселей
Высота : 720 пикселей
Соотношение сторон : 16:9
Режим частоты кадров : Постоянный
Частота кадров : 25,000 кадров/сек
Цветовое пространство : YUV
Субдискретизация насыщенности : 4:2:0
Битовая глубина : 8 бит
Тип развёртки : Прогрессивная
Бит/(Пиксели*Кадры) : 0.003
Размер потока : 75,1 Мбайт (34%)
Библиотека кодирования : x264 core 148 r2708 86b7198
Настройки программы : cabac=1 / ref=2 / deblock=1:0:0 / analyse=0x1:0x111 / me=hex / subme=6 / psy=1 / psy_rd=1.00:0.00 / mixed_ref=1 / me_range=16 / chroma_me=1 / trellis=1 / 8x8dct=0 / cqm=0 / deadzone=21,11 / fast_pskip=1 / chroma_qp_offset=-2 / threads=12 / lookahead_threads=2 / sliced_threads=0 / nr=0 / decimate=1 / interlaced=0 / bluray_compat=0 / constrained_intra=0 / bframes=3 / b_pyramid=2 / b_adapt=1 / b_bias=0 / direct=1 / weightb=1 / open_gop=0 / weightp=1 / keyint=250 / keyint_min=25 / scenecut=40 / intra_refresh=0 / rc_lookahead=30 / rc=crf / mbtree=1 / crf=22.0 / qcomp=0.60 / qpmin=0 / qpmax=69 / qpstep=4 / vbv_maxrate=20000 / vbv_bufsize=25000 / crf_max=0.0 / nal_hrd=none / filler=0 / ip_ratio=1.40 / aq=1:1.00
Дата кодирования : UTC 2018-04-08 07:10:35
Дата пометки : UTC 2018-04-08 07:10:35
Цветовой диапазон : Limited
Основные цвета : BT.709
Характеристики трансфера : BT.709
Коэффициенты матрицы : BT.709
Аудио
Идентификатор : 2
Формат : AAC
Формат/Информация : Advanced Audio Codec
Профиль формата : LC
Идентификатор кодека : mp4a-40-2
Продолжительность : 2 ч. 24 м.
Вид битрейта : Переменный
Битрейт : 132 Кбит/сек
Каналы : 2 канала
Расположение каналов : Front: L R
Частота : 48,0 КГц
Частота кадров : 46,875 кадров/сек (1024 SPF)
Метод сжатия : С потерями
Размер потока : 138 Мбайт (63%)
Заголовок : Stereo / Stereo
Язык : English
Default : Да
AlternateGroup/String : 1
Дата кодирования : UTC 2018-04-08 07:10:35
Дата пометки : UTC 2018-04-08 07:10:35
Общее
Полное имя : .\Вебинары\вебинар #01.mp4
Формат : MPEG-4
Профиль формата : Base Media / Version 2
Идентификатор кодека : mp42 (isom/iso2/avc1/mp41)
Размер файла : 255 Мбайт
Продолжительность : 2 ч. 33 м.
Режим общего битрейта : Переменный
Общий поток : 232 Кбит/сек
Дата кодирования : UTC 2018-04-06 11:34:40
Дата пометки : UTC 2018-04-06 11:34:40
Программа кодирования : HandBrake 1.0.7 2017040900
Видео
Идентификатор : 1
Формат : AVC
Формат/Информация : Advanced Video Codec
Профиль формата : Main@L4
Настройки формата : CABAC / 4 Ref Frames
Параметр CABAC формата : Да
Параметр RefFrames формата : 4 кадра
Идентификатор кодека : avc1
Идентификатор кодека/Информация : Advanced Video Coding
Продолжительность : 2 ч. 33 м.
Битрейт : 81,6 Кбит/сек
Ширина : 1280 пикселей
Высота : 1024 пикселя
Соотношение сторон : 5:4
Режим частоты кадров : Постоянный
Частота кадров : 25,000 кадров/сек
Цветовое пространство : YUV
Субдискретизация насыщенности : 4:2:0
Битовая глубина : 8 бит
Тип развёртки : Прогрессивная
Бит/(Пиксели*Кадры) : 0.002
Размер потока : 89,5 Мбайт (35%)
Библиотека кодирования : x264 core 148 r2708 86b7198
Настройки программы : cabac=1 / ref=2 / deblock=1:0:0 / analyse=0x1:0x111 / me=hex / subme=6 / psy=1 / psy_rd=1.00:0.00 / mixed_ref=1 / me_range=16 / chroma_me=1 / trellis=1 / 8x8dct=0 / cqm=0 / deadzone=21,11 / fast_pskip=1 / chroma_qp_offset=-2 / threads=12 / lookahead_threads=2 / sliced_threads=0 / nr=0 / decimate=1 / interlaced=0 / bluray_compat=0 / constrained_intra=0 / bframes=3 / b_pyramid=2 / b_adapt=1 / b_bias=0 / direct=1 / weightb=1 / open_gop=0 / weightp=1 / keyint=250 / keyint_min=25 / scenecut=40 / intra_refresh=0 / rc_lookahead=30 / rc=crf / mbtree=1 / crf=22.0 / qcomp=0.60 / qpmin=0 / qpmax=69 / qpstep=4 / vbv_maxrate=20000 / vbv_bufsize=25000 / crf_max=0.0 / nal_hrd=none / filler=0 / ip_ratio=1.40 / aq=1:1.00
Дата кодирования : UTC 2018-04-06 11:34:40
Дата пометки : UTC 2018-04-06 11:34:40
Цветовой диапазон : Limited
Основные цвета : BT.709
Характеристики трансфера : BT.709
Коэффициенты матрицы : BT.709
Аудио
Идентификатор : 2
Формат : AAC
Формат/Информация : Advanced Audio Codec
Профиль формата : LC
Идентификатор кодека : mp4a-40-2
Продолжительность : 2 ч. 33 м.
Вид битрейта : Переменный
Битрейт : 144 Кбит/сек
Каналы : 2 канала
Расположение каналов : Front: L R
Частота : 48,0 КГц
Частота кадров : 46,875 кадров/сек (1024 SPF)
Метод сжатия : С потерями
Размер потока : 158 Мбайт (62%)
Заголовок : Stereo / Stereo
Язык : English
Default : Да
AlternateGroup/String : 1
Дата кодирования : UTC 2018-04-06 11:34:40
Дата пометки : UTC 2018-04-06 11:34:40

Дополнительная информация:

В раздаче имеются архивы! В них содержится дополнительные материалы.
Скриншоты:
Скачать .torrent

Для того, чтобы скачать торрент-файл

Marlin - Самый понятный курс по php для начинающих (2018)

с нашего сайта, Вам необходимо Войти на сайт под своим логином! Если у Вас ещё нет логина, тогда Вам нужно сначала Зарегистрироваться!

Как скачивать? · Что такое торрент? · Рейтинг и ограничения

Показать сообщения:    
Ответить на тему

Marlin - Самый понятный курс по php для начинающих (2018) скачать торрент (torrent), видеоуроки, тренинги, обучающее видео и видеокурсы

Текущее время: Сегодня 16:00

Часовой пояс: GMT + 4



Вы не можете начинать темы
Вы не можете отвечать на сообщения
Вы не можете редактировать свои сообщения
Вы не можете удалять свои сообщения
Вы не можете голосовать в опросах
Вы не можете прикреплять файлы к сообщениям
Вы не можете скачивать файлы