Marlin - Объектно-ориентированное программирование (2017)

Ответить на тему
 
Автор Сообщение

Yulya ®

Marlin | Объектно-ориентированное программирование (2017) PCRec [H.264] - Автор (режиссер): Marlin
Жанр: Программирование
Описание:
Объектно-ориентированное мышление – это совершенно новый взгляд на разработку. Это восприятие программ (сайтов, приложений, скриптов, кода) через моделирование окружающего мира. Так как все объекты в окружающем мире для нас привычны, то и это мышление также является — естественным. Поэтому в этом небольшом курсе, я покажу на примере Как нужно мыслить объектно. Как придумывать (проектировать) реальные объекты в пространстве компьютера.
Продолжительность: 01:17:34
Качество видео: PCRec
Видео: AVC/H.264, 1280x720, ~668-1913 Kbps
Аудио: AAC, 2 ch, 316-317 Kbps

Mediainfo:

Общее
Полное имя : .\11. Заключение.mp4
Формат : MPEG-4
Профиль формата : Base Media / Version 2
Идентификатор кодека : mp42 (mp42/mp41)
Размер файла : 41,7 Мбайт
Продолжительность : 5 м. 53 с.
Режим общего битрейта : Переменный
Общий поток : 991 Кбит/сек
Дата кодирования : UTC 2017-07-05 16:15:38
Дата пометки : UTC 2017-07-05 16:15:40
TIM : 00;00;00;00
TSC : 30000
TSZ : 1001
Видео
Идентификатор : 1
Формат : AVC
Формат/Информация : Advanced Video Codec
Профиль формата : High@L4.2
Настройки формата : CABAC / 3 Ref Frames
Параметр CABAC формата : Да
Параметр RefFrames формата : 3 кадра
Параметр GOP формата : M=3, N=29
Идентификатор кодека : avc1
Идентификатор кодека/Информация : Advanced Video Coding
Продолжительность : 5 м. 53 с.
Вид битрейта : Переменный
Битрейт : 668 Кбит/сек
Максимальный битрейт : 16,0 Мбит/сек
Ширина : 1280 пикселей
Высота : 720 пикселей
Соотношение сторон : 16:9
Режим частоты кадров : Постоянный
Частота кадров : 29,970 (30000/1001) кадров/сек
Стандарт вещания : NTSC
Цветовое пространство : YUV
Субдискретизация насыщенности : 4:2:0
Битовая глубина : 8 бит
Тип развёртки : Прогрессивная
Бит/(Пиксели*Кадры) : 0.024
Размер потока : 28,1 Мбайт (67%)
Язык : English
Дата кодирования : UTC 2017-07-05 16:15:38
Дата пометки : UTC 2017-07-05 16:15:38
Цветовой диапазон : Limited
Основные цвета : BT.709
Характеристики трансфера : BT.709
Коэффициенты матрицы : BT.709
Аудио
Идентификатор : 2
Формат : AAC
Формат/Информация : Advanced Audio Codec
Профиль формата : LC
Идентификатор кодека : mp4a-40-2
Продолжительность : 5 м. 53 с.
Продолжительность оригинала : 5 м. 53 с.
Вид битрейта : Переменный
Битрейт : 317 Кбит/сек
Максимальный битрейт : 369 Кбит/сек
Каналы : 2 канала
Расположение каналов : Front: L R
Частота : 48,0 КГц
Частота кадров : 46,875 кадров/сек (1024 SPF)
Метод сжатия : С потерями
Размер потока : 13,4 Мбайт (32%)
Размер потока оригинала : 13,4 Мбайт (32%)
Язык : English
Дата кодирования : UTC 2017-07-05 16:15:38
Дата пометки : UTC 2017-07-05 16:15:38
Скриншоты:
Скачать .torrent

Для того, чтобы скачать торрент-файл

Marlin - Объектно-ориентированное программирование (2017)

с нашего сайта, Вам необходимо Войти на сайт под своим логином! Если у Вас ещё нет логина, тогда Вам нужно сначала Зарегистрироваться!

Как скачивать? · Что такое торрент? · Рейтинг и ограничения

Показать сообщения:    
Ответить на тему

Marlin - Объектно-ориентированное программирование (2017) скачать торрент (torrent), видеоуроки, тренинги, обучающее видео и видеокурсы

Текущее время: Сегодня 04:42

Часовой пояс: GMT + 4



Вы не можете начинать темы
Вы не можете отвечать на сообщения
Вы не можете редактировать свои сообщения
Вы не можете удалять свои сообщения
Вы не можете голосовать в опросах
Вы не можете прикреплять файлы к сообщениям
Вы не можете скачивать файлы