Андрей Журавлев - Adobe Photoshop: Инструменты цветовой и тоновой коррекции. Мастер-класс (2018)

Ответить на тему
 
Автор Сообщение

Yulya ®

Андрей Журавлев | Adobe Photoshop: Инструменты цветовой и тоновой коррекции. Мастер-класс (2018) PCRec [H.264/720p]- Автор (режиссер):Андрей Журавлев
Производство: liveclasses
Жанр: Adobe Photoshop, Допечатная подготовка
Описание:
Грамотно пользуйся всем арсеналом инструментов!
Большинство тоновых коррекций в фотошопе осуществляется при помощи кривых. И хоть кривые и являются универсальным инструментом, функционал фотошопа в поле тоновых и хроматических коррекций не ограничивается ими, все-таки, не ограничивается.
На этом классе мы разберем остальные инструменты, с помощью которых можно менять яркость, контраст, контрастность и цветность изображения.
У большинства инструментов, которые мы разберем, узкая специфика применения. Частично она может быть продублирована кривыми. Но есть и операторы с уникальным функционалом – их мы тоже посмотрим.
Задача – разобраться во всех тонкостях и случаях грамотного применения тех или иных коррекций.
Продолжительность: 02:00:00
Качество видео: PCRec
Видео: AVC/H.264, 1280x720, ~2400 Kbps
Аудио: AAC, 2 ch, 192 Kbps, 48.0 KHz

Mediainfo:

General
Complete name : I:\instr.cvet.i.ton.kor\8.Команды автокоррекции.mp4
Format : MPEG-4
Format profile : Base Media
Codec ID : isom (isom/iso2/avc1/mp41)
File size : 249 MiB
Duration : 12mn 48s
Overall bit rate : 2 723 Kbps
Writing application : Lavf57.25.100
Video
ID : 1
Format : AVC
Format/Info : Advanced Video Codec
Format profile : High@L3.1
Format settings, CABAC : Yes
Format settings, ReFrames : 4 frames
Codec ID : avc1
Codec ID/Info : Advanced Video Coding
Duration : 12mn 48s
Bit rate : 2 400 Kbps
Width : 1 280 pixels
Height : 720 pixels
Display aspect ratio : 16:9
Frame rate mode : Constant
Frame rate : 25.000 fps
Color space : YUV
Chroma subsampling : 4:2:0
Bit depth : 8 bits
Scan type : Progressive
Bits/(Pixel*Frame) : 0.104
Stream size : 231 MiB (93%)
Writing library : x264 core 148
Encoding settings : cabac=1 / ref=3 / deblock=1:0:0 / analyse=0x3:0x113 / me=hex / subme=7 / psy=1 / psy_rd=1.00:0.00 / mixed_ref=1 / me_range=16 / chroma_me=1 / trellis=1 / 8x8dct=1 / cqm=0 / deadzone=21,11 / fast_pskip=1 / chroma_qp_offset=-2 / threads=22 / lookahead_threads=3 / sliced_threads=0 / nr=0 / decimate=1 / interlaced=0 / bluray_compat=0 / constrained_intra=0 / bframes=3 / b_pyramid=2 / b_adapt=1 / b_bias=0 / direct=1 / weightb=1 / open_gop=0 / weightp=2 / keyint=90 / keyint_min=9 / scenecut=40 / intra_refresh=0 / rc_lookahead=40 / rc=abr / mbtree=1 / bitrate=2400 / ratetol=1.0 / qcomp=0.60 / qpmin=0 / qpmax=69 / qpstep=4 / ip_ratio=1.40 / aq=1:1.00
Color range : Limited
Color primaries : BT.709
Transfer characteristics : BT.709
Matrix coefficients : BT.709
Audio
ID : 2
Format : AAC
Format/Info : Advanced Audio Codec
Format profile : LC
Codec ID : 40
Duration : 12mn 47s
Bit rate mode : Constant
Bit rate : 192 Kbps
Channel(s) : 2 channels
Channel positions : Front: L R
Sampling rate : 44.1 KHz
Frame rate : 43.066 fps (1024 spf)
Compression mode : Lossy
Stream size : 17.6 MiB (7%)
Language : unk
Default : Yes
Alternate group : 1

Содержание:

1.Яркость. Контраст. Уровни
2.Гамма-коррекция
3.Экспозиция
4.Photo Filter
5.Color Lookup
6.Posterize. Threshod
7.Equalize
8.Команды автокоррекции
Скриншоты:
Скачать .torrent

Для того, чтобы скачать торрент-файл

Андрей Журавлев - Adobe Photoshop: Инструменты цветовой и тоновой коррекции. Мастер-класс (2018)

с нашего сайта, Вам необходимо Войти на сайт под своим логином! Если у Вас ещё нет логина, тогда Вам нужно сначала Зарегистрироваться!

Как скачивать? · Что такое торрент? · Рейтинг и ограничения

Показать сообщения:    
Ответить на тему

Андрей Журавлев - Adobe Photoshop: Инструменты цветовой и тоновой коррекции. Мастер-класс (2018) скачать торрент (torrent), видеоуроки, тренинги, обучающее видео и видеокурсы

Текущее время: Сегодня 23:18

Часовой пояс: GMT + 4



Вы не можете начинать темы
Вы не можете отвечать на сообщения
Вы не можете редактировать свои сообщения
Вы не можете удалять свои сообщения
Вы не можете голосовать в опросах
Вы не можете прикреплять файлы к сообщениям
Вы не можете скачивать файлы