ProfIT - Исключения - "серебряная пуля" для программиста на PHP (2015)

Ответить на тему
 
Автор Сообщение

Yulya ®

ProfIT | Исключения - "серебряная пуля" для программиста на PHP (2015) CamRip - Автор (режиссер): Альберт Степанцев
Производство: ProfIT
Жанр: Программирование
Описание:
Мануал по любимому языку программирования читать нужно еще внимательнее, чем очередной "ужастик" Стивена Кинга. Для тех, кто при чтении пропустил главу "Исключения" - этот вебинар!
Материалы вебинара станут для вас прекрасной шпаргалкой как в повседневной работе, так и при подготовке к собеседованию в любую крупную компанию.
Продолжительность: 01:24:31
Качество видео: CamRip
Видео: AVC/H.264, 1280x688, ~398 Kbps
Аудио: AAC, 2 ch, 192 Kbps

Mediainfo:

Общее
Полное имя : [ProfIT] Исключения - серебряная пуля для программиста на PHP\2015-11-10 Вебинар «Исключения - 'серебряная пуля' для программиста на PHP».mp4
Формат : MPEG-4
Профиль формата : Base Media / Version 2
Идентификатор кодека : mp42 (isom/mp42)
Размер файла : 358 Мбайт
Продолжительность : 1 ч. 24 м.
Режим общего битрейта : Переменный
Общий поток : 592 Кбит/сек
Дата кодирования : UTC 2015-11-10 18:55:39
Дата пометки : UTC 2015-11-10 18:55:39
gsst : 0
gstd : 5071795
gssd : B0AFCFD5C
gshh : r15---sn-5hne6n7r.googlevideo.com
Видео
Идентификатор : 1
Формат : AVC
Формат/Информация : Advanced Video Codec
Профиль формата : High@L3.1
Настройки формата : CABAC / 1 Ref Frames
Параметр CABAC формата : Да
Параметр RefFrames формата : 1 кадр
Параметр GOP формата : M=1, N=60
Идентификатор кодека : avc1
Идентификатор кодека/Информация : Advanced Video Coding
Продолжительность : 1 ч. 24 м.
Битрейт : 398 Кбит/сек
Максимальный битрейт : 3714 Кбит/сек
Ширина : 1280 пикселей
Высота : 688 пикселей
Соотношение сторон : 1,85:1
Режим частоты кадров : Постоянный
Частота кадров : 15,000 кадров/сек
Цветовое пространство : YUV
Субдискретизация насыщенности : 4:2:0
Битовая глубина : 8 бит
Тип развёртки : Прогрессивная
Бит/(Пиксели*Кадры) : 0.030
Размер потока : 241 Мбайт (67%)
Дата пометки : UTC 2015-11-10 18:57:16
Аудио
Идентификатор : 2
Формат : AAC
Формат/Информация : Advanced Audio Codec
Профиль формата : LC
Идентификатор кодека : mp4a-40-2
Продолжительность : 1 ч. 24 м.
Вид битрейта : Переменный
Битрейт : 192 Кбит/сек
Максимальный битрейт : 202 Кбит/сек
Каналы : 2 канала
Расположение каналов : Front: L R
Частота : 44,1 КГц
Частота кадров : 43,066 кадра/сек (1024 SPF)
Метод сжатия : С потерями
Размер потока : 116 Мбайт (32%)
Заголовок : IsoMedia File Produced by Google, 5-11-2011
Язык : English
Дата кодирования : UTC 2015-11-10 18:56:33
Дата пометки : UTC 2015-11-10 18:57:16

Дополнительная информация:

Что такое "исключение" и чем механизм исключений отличается от ошибок?
Наследование и иерархия исключений в PHP
Исключения в стандартной библиотеке PHP
Архитектурный паттерн "Мультиисключение"
Что нового принесет PHP 7 в механизм исключений?
Являются ли исключения волшебной серебряной пулей?
Скриншоты:
Скачать .torrent

Для того, чтобы скачать торрент-файл

ProfIT - Исключения - "серебряная пуля" для программиста на PHP (2015)

с нашего сайта, Вам необходимо Войти на сайт под своим логином! Если у Вас ещё нет логина, тогда Вам нужно сначала Зарегистрироваться!

Как скачивать? · Что такое торрент? · Рейтинг и ограничения

Показать сообщения:    
Ответить на тему

ProfIT - Исключения - "серебряная пуля" для программиста на PHP (2015) скачать торрент (torrent), видеоуроки, тренинги, обучающее видео и видеокурсы

Текущее время: Сегодня 12:55

Часовой пояс: GMT + 4



Вы не можете начинать темы
Вы не можете отвечать на сообщения
Вы не можете редактировать свои сообщения
Вы не можете удалять свои сообщения
Вы не можете голосовать в опросах
Вы не можете прикреплять файлы к сообщениям
Вы не можете скачивать файлы