Артем Шашков - JavaScript. Продвинутый курс [Уровень 2] (2018)

Ответить на тему
 
Автор Сообщение

Yulya ®

Артем Шашков | JavaScript. Продвинутый курс [Уровень 2] (2018) PCRec [H.264] - Автор (режиссер): Артем Шашков
Производство: GeekBrains
Жанр: IT
Описание:
Курс предназначен для тех, кто уже освоил базовые возможности языка JavaScript, и теперь хочет научиться делать реально крутые вещи. Каждый урок включает в себя как полезную теорию, так и эффективную практику. Насыщенный самыми актуальными знаниями и навыками, продвинутый курс от GeekBrains - это возможность быстро и надёжно стать профессиональным разработчиком JavaScript.
Чему Вы научитесь:
• Объектно-ориентированной парадигме в JavaScript;
• Писать Ajax-запросы;
• Создавать графические интерактивные приложения;
• Использовать библиотеку JQuery;
• Использовать Gulp, Grunt.
Продолжительность: 17:24:40
Качество видео: PCRec
Видео: AVC/H.264, 1280 x 720, ~305 kbps
Аудио: AAC, 2 ch, 64.0 kbps

Mediainfo:

General
Complete name : D:\Раздачи\JS2\Урок 1\1.mp4
Format : MPEG-4
Format profile : Base Media
Codec ID : isom (isom/iso2/avc1/mp41)
File size : 426 MiB
Duration : 2 h 38 min
Overall bit rate : 375 kb/s
Writing application : Lavf56.25.101
Video
ID : 1
Format : AVC
Format/Info : Advanced Video Codec
Format profile : High@L3.1
Format settings : CABAC / 4 Ref Frames
Format settings, CABAC : Yes
Format settings, RefFrames : 4 frames
Codec ID : avc1
Codec ID/Info : Advanced Video Coding
Duration : 2 h 38 min
Bit rate : 305 kb/s
Nominal bit rate : 640 kb/s
Width : 1 280 pixels
Height : 720 pixels
Display aspect ratio : 16:9
Frame rate mode : Variable
Frame rate : 20.000 FPS
Minimum frame rate : 15.385 FPS
Maximum frame rate : 20.000 FPS
Color space : YUV
Chroma subsampling : 4:2:0
Bit depth : 8 bits
Scan type : Progressive
Bits/(Pixel*Frame) : 0.017
Stream size : 347 MiB (81%)
Writing library : x264 core 146
Encoding settings : cabac=1 / ref=1 / deblock=1:0:0 / analyse=0x3:0x113 / me=hex / subme=2 / psy=1 / psy_rd=1.00:0.00 / mixed_ref=0 / me_range=16 / chroma_me=1 / trellis=0 / 8x8dct=1 / cqm=0 / deadzone=21,11 / fast_pskip=1 / chroma_qp_offset=0 / threads=4 / lookahead_threads=1 / sliced_threads=0 / nr=0 / decimate=1 / interlaced=0 / bluray_compat=0 / constrained_intra=0 / bframes=3 / b_pyramid=2 / b_adapt=1 / b_bias=0 / direct=1 / weightb=1 / open_gop=0 / weightp=1 / keyint=80 / keyint_min=8 / scenecut=40 / intra_refresh=0 / rc_lookahead=10 / rc=cbr / mbtree=1 / bitrate=640 / ratetol=1.0 / qcomp=0.60 / qpmin=0 / qpmax=69 / qpstep=4 / vbv_maxrate=640 / vbv_bufsize=512 / nal_hrd=none / filler=0 / ip_ratio=1.40 / aq=1:1.00
Audio
ID : 2
Format : AAC
Format/Info : Advanced Audio Codec
Format profile : LC
Codec ID : mp4a-40-2
Duration : 2 h 38 min
Bit rate mode : Constant
Bit rate : 64.0 kb/s
Channel(s) : 2 channels
Channel positions : Front: L R
Sampling rate : 44.1 kHz
Frame rate : 43.066 FPS (1024 SPF)
Compression mode : Lossy
Stream size : 72.8 MiB (17%)
Default : Yes
Alternate group : 1

Дополнительная информация:

Урок 1. ООП в JavaScript
Prototype; жизненные циклы объекта; прототипный и функциональный стиль: минусы и плюсы; наследование; встроенные классы.
Урок 2. AJAX и JSON
XMLHttpRequest; типы запросов; форматы JSON и XML.
Урок 3. Регулярные выражения
Паттерны и флаги; Regexp и String; квантификаторы; наборы и диапазоны.
Урок 4. Введение в jQuery
Селекторы; события; AJAX в jQuery; работа со стилями и анимация.
Урок 5. Взаимодействие компонентов страницы, практика
Соглашения и документация; разработка модулей.
Урок 6. jQuery UI и другие расширения jQuery
Виджеты; Поведения; дополнительная анимация; подключение и использование объекта Carousel.
Урок 7. Полезные библиотеки, сборщики и шаблонизаторы
Таск-менеджеры; сборщик Gulp.
Урок 8. Тестирование в JavaScript
Типы тестирования; тестирование в JavaScript; Jasmine.js; дальнейшее развитие.
Скриншоты:
Скачать .torrent

Для того, чтобы скачать торрент-файл

Артем Шашков - JavaScript. Продвинутый курс [Уровень 2] (2018)

с нашего сайта, Вам необходимо Войти на сайт под своим логином! Если у Вас ещё нет логина, тогда Вам нужно сначала Зарегистрироваться!

Как скачивать? · Что такое торрент? · Рейтинг и ограничения

Показать сообщения:    
Ответить на тему

Артем Шашков - JavaScript. Продвинутый курс [Уровень 2] (2018) скачать торрент (torrent), видеоуроки, тренинги, обучающее видео и видеокурсы

Текущее время: Сегодня 12:11

Часовой пояс: GMT + 4



Вы не можете начинать темы
Вы не можете отвечать на сообщения
Вы не можете редактировать свои сообщения
Вы не можете удалять свои сообщения
Вы не можете голосовать в опросах
Вы не можете прикреплять файлы к сообщениям
Вы не можете скачивать файлы