Специалист - Международные стандарты финансовой отчетности (МСФО) (2013)

Ответить на тему
 
Автор Сообщение

Yulya ®

-Специалист - Международные стандарты финансовой отчетности (МСФО) (2013)- Автор (режиссер): Специалист
Преподаватель: Галина Шайдулловна Тулепбаева
Жанр: Обучающие видео-уроки
Продолжительность: 28:39:59
Качество видео: PCRec
Видеокодек: WMV3
Битрейт видео: ~76 - 144 kb/s
Размер кадра: 1044x788 - 1596x1176
Аудиокодек: WMA
Битрейт аудио: 48 kb/s, 1 Ch
Доп. материалы: Есть
Описание:
Цель курса:
Дать базовые знания в области МСФО — основные принципы, понятия, цели и задачи при подготовке отчетности, понимание основных отличий международных стандартов финансовой отчетности и российского бухгалтерского учета.
По окончании курса Вы будете уметь:
Ориентироваться в международных стандартах финансовой отчетности;
Принципам МСФО;
Истории МСФО;
Находить основные различия в отчетности, составленной в соответствии с МСФО и РСБУ;
Читать отчетность, составленную в соответствии с МСФО;
Основным принципам консолидации отчетности;
Основным принципам составления примечаний к отчетности.

Программа курса:

Модуль 1. Занятие 1
Введение в структуру стандартов, особенности принятия и применения
Принципы подготовки и представления финансовой отчетности
МСФО (IAS) 1 Представление финансовой отчётности
МСФО (IAS) 8 Учетная политика, изменения в расчётных бухгалтерских оценках и ошибки
МСФО (IFRS) 1 Принятие Международных стандартов финансовой отчётности впервые
Практические ситуации и решение задач
Модуль 2. Занятие 2
МСФО (IAS) 18 Выручка
МСФО (IAS) 11 Договоры на строительство
Практические ситуации и решение задач
Модуль 3. Занятие 3
МСФО (IAS) 16 Основные средства
МСФО (IAS) 40 Инвестиционная собственность
МСФО (IAS) 38 Нематериальные активы
МСФО (IAS) 2 Запасы
Практические ситуации и решение задач
Модуль 4. Занятие 4
МСФО (IAS) 23 Затраты, связанные с привлечением заемных средствм
МСФО (IAS) 36 Обесценение активов
МСФО (IAS) 41 Сельское хозяйство
МСФО (IAS) 20 Учет государственных субсидий
Практические ситуации и решение задач
Модуль 5. Занятие 5
МСФО (IAS) 17 Аренда
Финансовые инструменты: МСФО (IAS) 32, МСФО (IAS) 39, МСФО (IFRS) 7
Практические ситуации и решение задач
Модуль 6. Занятие 6
МСФО (IAS) 12 Налоги на прибыль
МСФО (IAS) 19 Вознаграждения сотрудникам
МСФО (IFRS) 2 Выплаты на основе долевых инструментов
Практические ситуации и решение задач
Модуль 7. Занятие 7
Консолидация МСФО (IFRS) 10, МСФО (IFRS) 11, МСФО (IFRS) 12
Практические ситуации и решение задач
Модуль 8. Занятие 8
МСФО (IFRS) 5 Долгосрочные активы, предназначенные для продажи, и прекращённая деятельность
МСФО (IAS) 24 Раскрытие информации о связанных сторонах
МСФО (IAS) 7 Отчёты о движении денежных средств
Практические ситуации и решение задач
Модуль 9. Занятие 9
МСФО (IAS) 37 Резервы, условные обязательства и условные активы
МСФО (IFRS) 8 Операционные сегменты
МСФО (IAS) 21 Влияние изменений обменных курсов иностранных валют
МСФО (IAS) 10 События после отчётной даты
Практические ситуации и решение задач
Модуль 10. Занятие 10
МСФО (IAS) 34 Промежуточная финансовая отчетность
МСФО (IFRS) 6 Разведка и оценка минеральных ресурсов
МСФО (IAS) 33 Прибыль на акцию
Практические ситуации и решение задач

О преподавателе:

Тулепбаева Галина Шайдулловна
Преподаватель по МСФО с огромным опытом преподавания и практической работы. Имеет уникальный опыт трансформации бухгалтерской отчетности крупных российских компаний в отчетность по МСФО. Щедро делится профессиональными секретами со слушателями, объяснение любой темы подкрепляет конкретными примерами из богатой собственной практики
Богатейший опыт практической работы Галины Шайдулловны включает работу заместителем генерального директора и финансовым директором, управление деятельностью бухгалтерских и финансовой служб строительных холдингов, начальником отдела учета по МСФО, главным методологом по внедрению 1С8.0. Галина Шайдулловна занималась трансформацией российской бухгалтерской отчетности компаний Группы Smart Logistic Group в отчетность по МСФО, подготовкой и выпуском сопроводительной информации (раскрытием отчетности) по МСФО, подготовкой раскрытий по финансовым рискам в консолидированной отчетности группы, составлением сводной консолидированной отчетности компании по стандартам МСФО, защитой финансовой отчетности, работой с аудиторами уровня BIG 4.
Имеет более 10 лет преподавательского стажа в различных ВУЗах по по курсам: «Бухгалтерский финансовый учет»; «Комплексный экономический анализ хозяйственной деятельности»; «Международные стандарты финансовой отчетности».
Статусы и сертификации:
Диплом АССА по Международной Финансовой Отчетности (DipIFR) ATC International
Аттестат профессионального бухгалтера МинФина РФ, квалификация-главный бухгалтер
Действительный член Института Профессиональных бухгалтеров России
Сертифицирована по модулю «Корпоративные финансы (автоматизация бизнес-процессов), Академия менеджмента Инталев
Кандидат технических наук.

MediaInfo:

Код:
Общее
Полное имя                               : C:\[Специалист] Международные стандарты финансовой отчетности (МСФО) - 2013\02_1.wmv
Формат                                   : Windows Media
Размер файла                             : 170 Мбайт
Продолжительность                        : 2 ч. 52 м.
Режим общего битрейта                    : Переменный
Общий поток                              : 138 Кбит/сек
Максимальный общий битрейт               : 602 Кбит/сек
Название фильма                          : 02_1
Дата кодирования                         : UTC 2013-12-17 20:34:59.308
Видео
Идентификатор                            : 2
Формат                                   : VC-1
Профиль формата                          : MP@HL
Идентификатор кодека                     : WMV3
Идентификатор кодека/Информация          : Windows Media Video 9
Идентификатор кодека/Подсказка           : WMV3
Описание кодека                          : Windows Media Video 9
Продолжительность                        : 2 ч. 52 м.
Вид битрейта                             : Переменный
Битрейт                                  : 76,0 Кбит/сек
Ширина                                   : 1044 пикселя
Высота                                   : 788 пикселей
Соотношение сторон                       : 4:3
Частота кадров                           : 15,000 кадров/сек
Цветовое пространство                    : YUV
Субдискретизация насыщенности            : 4:2:0
Битовая глубина                          : 8 бит
Тип развёртки                            : Прогрессивная
Метод сжатия                             : С потерями
Бит/(Пиксели*Кадры)                      : 0.006
Размер потока                            : 93,9 Мбайт (55%)
Язык                                     : English (US)
Аудио
Идентификатор                            : 1
Формат                                   : WMA
Версия формата                           : Version 2
Идентификатор кодека                     : 161
Идентификатор кодека/Информация          : Windows Media Audio
Описание кодека                          : Windows Media Audio 9.2 -  48 kbps, 44 kHz, mono (A/V) 1-pass CBR
Продолжительность                        : 2 ч. 52 м.
Вид битрейта                             : Постоянный
Битрейт                                  : 48,0 Кбит/сек
Каналы                                   : 1 канал
Частота                                  : 44,1 КГц
Битовая глубина                          : 16 бит
Размер потока                            : 59,4 Мбайт (35%)
Язык                                     : English (US)
Код:
Общее
Полное имя                               : C:\[Специалист] Международные стандарты финансовой отчетности (МСФО) - 2013\04_2.wmv
Формат                                   : Windows Media
Размер файла                             : 40,9 Мбайт
Продолжительность                        : 27 м.
Режим общего битрейта                    : Переменный
Общий поток                              : 208 Кбит/сек
Максимальный общий битрейт               : 571 Кбит/сек
Название фильма                          : 04_2
Дата кодирования                         : UTC 2014-01-08 16:23:10.165
Видео
Идентификатор                            : 2
Формат                                   : VC-1
Профиль формата                          : Main
Идентификатор кодека                     : WMV3
Идентификатор кодека/Информация          : Windows Media Video 9
Идентификатор кодека/Подсказка           : WMV3
Описание кодека                          : Windows Media Video 9
Продолжительность                        : 27 м.
Вид битрейта                             : Переменный
Битрейт                                  : 144 Кбит/сек
Ширина                                   : 1596 пикселей
Высота                                   : 1176 пикселей
Соотношение сторон                       : 4:3
Частота кадров                           : 15,000 кадров/сек
Цветовое пространство                    : YUV
Субдискретизация насыщенности            : 4:2:0
Битовая глубина                          : 8 бит
Тип развёртки                            : Прогрессивная
Метод сжатия                             : С потерями
Бит/(Пиксели*Кадры)                      : 0.005
Размер потока                            : 28,4 Мбайт (69%)
Язык                                     : English (US)
Аудио
Идентификатор                            : 1
Формат                                   : WMA
Версия формата                           : Version 2
Идентификатор кодека                     : 161
Идентификатор кодека/Информация          : Windows Media Audio
Описание кодека                          : Windows Media Audio 9.2 -  48 kbps, 44 kHz, mono (A/V) 1-pass CBR
Продолжительность                        : 27 м.
Вид битрейта                             : Постоянный
Битрейт                                  : 48,0 Кбит/сек
Каналы                                   : 1 канал
Частота                                  : 44,1 КГц
Битовая глубина                          : 16 бит
Размер потока                            : 9,44 Мбайт (23%)
Язык                                     : English (US)
Скриншоты:
Скачать .torrent

Для того, чтобы скачать торрент-файл

Специалист - Международные стандарты финансовой отчетности (МСФО) (2013)

с нашего сайта, Вам необходимо Войти на сайт под своим логином! Если у Вас ещё нет логина, тогда Вам нужно сначала Зарегистрироваться!

Как скачивать? · Что такое торрент? · Рейтинг и ограничения

Показать сообщения:    
Ответить на тему

Специалист - Международные стандарты финансовой отчетности (МСФО) (2013) скачать торрент (torrent), видеоуроки, тренинги, обучающее видео и видеокурсы

Текущее время: Сегодня 10:53

Часовой пояс: GMT + 4



Вы не можете начинать темы
Вы не можете отвечать на сообщения
Вы не можете редактировать свои сообщения
Вы не можете удалять свои сообщения
Вы не можете голосовать в опросах
Вы не можете прикреплять файлы к сообщениям
Вы не можете скачивать файлы